<?xml version="1.0" standalone="no"?>
<!DOCTYPE svg PUBLIC "-//W3C//DTD SVG 1.1//EN" "http://www.w3.org/Graphics/SVG/1.1/DTD/svg11.dtd" >
<svg xmlns="http://www.w3.org/2000/svg">
<metadata>Generated by IcoMoon</metadata>
<defs>
<font id="vidaXLfont" horiz-adv-x="1024">
<font-face units-per-em="1024" ascent="960" descent="-64" />
<missing-glyph horiz-adv-x="1024" />
<glyph unicode="&#x20;" horiz-adv-x="512" d="" />
<glyph unicode="&#xe164;" glyph-name="sort" d="M128 406v84h512v-84h-512zM128 704h768v-86h-768v86zM128 192v86h256v-86h-256z" />
<glyph unicode="&#xe313;" glyph-name="keyboard_arrow_down" d="M316 626l196-196 196 196 60-60-256-256-256 256z" />
<glyph unicode="&#xe314;" glyph-name="keyboard_arrow_left" d="M658 274l-60-60-256 256 256 256 60-60-196-196z" />
<glyph unicode="&#xe315;" glyph-name="keyboard_arrow_right" d="M366 262l196 196-196 196 60 60 256-256-256-256z" />
<glyph unicode="&#xe316;" glyph-name="keyboard_arrow_up" d="M316 302l-60 60 256 256 256-256-60-60-196 196z" />
<glyph unicode="&#xe5cd;" glyph-name="close" d="M810 686l-238-238 238-238-60-60-238 238-238-238-60 60 238 238-238 238 60 60 238-238 238 238z" />
<glyph unicode="&#xe900;" glyph-name="account" d="M387.84 384.853c-264.533 151.040-134.4 547.413 155.733 512.853 134.958-18.447 237.833-132.976 237.833-271.532 0-37.644-7.594-73.515-21.333-106.163l0.673 1.803c-25.297-58.117-67.072-105.117-119.402-136.22l-1.345-0.74c633.173-90.027 306.347-469.333-294.4-373.76-339.2 52.907-392.533 229.973-164.693 324.267 60.374 24.006 130.447 41.478 203.43 49.193l3.504 0.3z" />
<glyph unicode="&#xe901;" glyph-name="radio_button_unchecked" d="M512 874.667c-235.52 0-426.667-191.147-426.667-426.667s191.147-426.667 426.667-426.667 426.667 191.147 426.667 426.667-191.147 426.667-426.667 426.667zM512 106.667c-188.587 0-341.333 152.747-341.333 341.333s152.747 341.333 341.333 341.333 341.333-152.747 341.333-341.333-152.747-341.333-341.333-341.333z" />
<glyph unicode="&#xe902;" glyph-name="assortment_usp" d="M680.107 629.76c16.64 31.147 0 85.333-46.507 72.107-31.573-10.24-40.107-37.547-27.307-72.107 5.972-14.829 20.239-25.106 36.907-25.106s30.935 10.277 36.812 24.84l0.095 0.266zM705.28 153.173c8.494-16.497 25.406-27.584 44.907-27.584 21.147 0 39.248 13.037 46.706 31.513l0.121 0.338c24.747 77.227-125.013 66.133-91.733-4.267zM932.267 678.827c-11.52 4.267-11.52-145.067-29.013-128-34.56 32.427-72.533 73.387-119.467 49.067s-33.28-79.36-21.76-117.76-37.547-53.76-65.707-26.027-54.613 38.827-75.093 15.36c-12.373-13.653-17.493-25.6-12.8-32.427 3.114-4.537 8.272-7.474 14.116-7.474 1.659 0 3.262 0.237 4.778 0.678l-0.121-0.030c5.547 2.56 3.84 22.187 13.653 30.293 29.44 24.747 53.76-77.653 122.027-42.667 34.56 18.347 45.653 36.693 30.72 110.507s42.667 24.32 85.333-26.027c7.439-13.151 21.331-21.883 37.262-21.883 14.335 0 27.020 7.070 34.756 17.913l0.088 0.13c17.755 34.384 28.78 74.831 30.28 117.702l0.013 0.485c0.016 0.518 0.026 1.128 0.026 1.74 0 29.145-21.023 53.379-48.732 58.367l-0.36 0.054zM318.72 659.2c39.253-9.387 28.16-59.307-9.813-69.973s-61.013-28.16-50.773-55.893 52.48-36.693 57.6-28.16-10.24-2.987-34.133 14.080-13.227 42.667 17.92 49.493c42.667 5.973 71.68 23.467 72.96 62.293s-8.96 56.32-80.213 79.787 0 49.92 65.28 61.867c23.155 2.166 41.135 21.504 41.135 45.041 0 5.103-0.845 10.008-2.403 14.584l0.094-0.318c-1.316 5.276-6.013 9.123-11.608 9.123-2.893 0-5.545-1.028-7.612-2.739l0.020 0.016c-50.773-42.667-146.347-28.16-149.76-102.827-2.133-51.627 52.48-66.987 91.307-76.373zM702.293 390.827c-9.411 1.568-20.255 2.464-31.308 2.464-52.754 0-100.74-20.414-136.489-53.773l0.117 0.108c-19.627-18.773 14.507-42.667 20.053-45.653 1.356-0.752 2.973-1.195 4.693-1.195s3.338 0.443 4.744 1.221l-0.050-0.026c21.044 28.528 54.527 46.829 92.285 46.829 6.738 0 13.34-0.583 19.758-1.701l-0.683 0.099c110.080-7.68 109.227-85.333 145.493-85.333 19.641 7.457 33.347 26.121 33.347 47.987 0 7.824-1.755 15.239-4.893 21.871l0.133-0.311c-16.64 31.573-78.933 57.6-147.2 67.413zM508.587 541.867c-10.577-46.286-37.798-84.919-74.889-110.103l-0.631-0.404v-2.56c3.512-3.864 8.2-6.604 13.496-7.654l0.157-0.026c0.237-0.003 0.517-0.005 0.797-0.005 11.368 0 21.994 3.175 31.040 8.688l-0.263-0.149c35.822 18.344 64.831 45.573 84.809 78.844l0.525 0.943c11.693 17.812 18.652 39.642 18.652 63.097 0 28.737-10.445 55.035-27.746 75.304l0.134-0.161c-13.615 8.136-30.031 12.947-47.571 12.947-6.57 0-12.982-0.675-19.171-1.959l0.609 0.106c-5.547-2.987 0-14.080 0-14.080 14.894-20.043 23.843-45.277 23.843-72.6 0-10.739-1.382-21.154-3.979-31.079l0.189 0.852zM634.027 315.307s49.493-128-21.333-107.093c-64 19.2-165.973 133.973-186.027 157.44-42.667 64.853-71.253 146.347-42.667 182.613 6.827 12.373 49.92 5.547 90.027-21.76 0 0-60.16 49.92-91.307 39.253-12.8-4.693 14.080 27.733-334.080-466.347-2.292-4.057-3.642-8.908-3.642-14.074 0-16.024 12.99-29.013 29.013-29.013 1.739 0 3.442 0.153 5.097 0.446l-0.175-0.026 554.667 128c51.2 2.987 32.853 113.493 0.427 130.56zM282.453 121.6c-60.16 27.733-75.947 113.067-64.853 185.6 0 4.267-14.933-20.48 78.080 111.36-21.333-96-15.787-228.693 68.267-278.187z" />
<glyph unicode="&#xe903;" glyph-name="radio_button_checked" d="M512 661.333c-117.76 0-213.333-95.573-213.333-213.333s95.573-213.333 213.333-213.333 213.333 95.573 213.333 213.333-95.573 213.333-213.333 213.333zM512 874.667c-235.52 0-426.667-191.147-426.667-426.667s191.147-426.667 426.667-426.667 426.667 191.147 426.667 426.667-191.147 426.667-426.667 426.667zM512 106.667c-188.587 0-341.333 152.747-341.333 341.333s152.747 341.333 341.333 341.333 341.333-152.747 341.333-341.333-152.747-341.333-341.333-341.333z" />
<glyph unicode="&#xe904;" glyph-name="indeterminate_check_box" d="M810.667 832h-597.333c-46.933 0-85.333-38.4-85.333-85.333v-597.333c0-46.933 38.4-85.333 85.333-85.333h597.333c46.933 0 85.333 38.4 85.333 85.333v597.333c0 46.933-38.4 85.333-85.333 85.333zM725.333 405.333h-426.667v85.333h426.667v-85.333z" />
<glyph unicode="&#xe905;" glyph-name="check_box_outline_blank" d="M810.667 746.667v-597.333h-597.333v597.333h597.333zM810.667 832h-597.333c-46.933 0-85.333-38.4-85.333-85.333v-597.333c0-46.933 38.4-85.333 85.333-85.333h597.333c46.933 0 85.333 38.4 85.333 85.333v597.333c0 46.933-38.4 85.333-85.333 85.333z" />
<glyph unicode="&#xe906;" glyph-name="Bank_transfer_NL" horiz-adv-x="2389" d="M866.987 845.227c0 42.667 0 30.293-712.533 30.293-16.542-0.461-29.832-13.752-30.292-30.25l-0.001-0.043c0-45.653-8.96-32 712.533-32 32.427 0 26.453 32 30.293 32zM682.667 721.067c0 42.667-18.773 30.293-526.507 30.293-16.542-0.461-29.832-13.752-30.292-30.25l-0.001-0.043c0-45.653 18.347-31.573 526.507-31.573 30.293 0 24.747 31.573 30.293 31.573zM496.213 596.907c0 42.667-31.147 30.293-341.333 30.293-15.564-1.884-27.507-15.014-27.507-30.933s11.943-29.049 27.358-30.919l0.149-0.015c300.8 0 341.333-13.653 341.333 31.573zM1125.547 505.6c-25.908 0.035-50.183 6.999-71.079 19.138l0.679-0.364c-20.437 12.55-36.721 30.066-47.451 50.909l-0.336 0.718c-11.781 22.699-19.33 49.34-20.885 77.578l-0.022 0.502c-0.252 4.769-0.396 10.352-0.396 15.97 0 28.591 3.725 56.312 10.716 82.704l-0.506-2.247c8.427 34.261 22.404 64.346 41.097 90.87l-0.564-0.843c17.25 24.18 39.406 43.744 65.122 57.531l1.011 0.495c22.643 11.861 49.463 18.82 77.909 18.82 1.41 0 2.817-0.017 4.219-0.051l-0.208 0.004c0.161 0.001 0.351 0.001 0.541 0.001 25.924 0 50.181-7.136 70.914-19.55l-0.629 0.349c20.364-12.819 36.524-30.622 47.025-51.736l0.335-0.744c11.271-22.654 18.38-49.183 19.612-77.239l0.014-0.414c0.248-4.744 0.389-10.299 0.389-15.888 0-29.857-4.035-58.772-11.59-86.229l0.534 2.277c-8.72-33.958-23.437-63.642-43.101-89.338l0.435 0.592c-16.932-23.385-38.663-42.25-63.846-55.414l-1.007-0.479c-22.511-11.308-49.055-17.929-77.145-17.929-0.629 0-1.257 0.003-1.884 0.010l0.096-0.001zM1239.893 722.347l2.133 24.32c0.64 4.807 1.005 10.365 1.005 16.009 0 21.424-5.263 41.619-14.568 59.361l0.336-0.703c-9.924 15.977-27.375 26.456-47.275 26.456-0.18 0-0.36-0.001-0.539-0.003h0.027c-1.21 0.059-2.628 0.093-4.054 0.093-32.191 0-60.38-17.14-75.937-42.791l-0.222-0.395c-20.937-36.871-33.278-80.994-33.28-127.999v-0.001c-0.57-4.679-0.896-10.097-0.896-15.59 0-21.652 5.056-42.124 14.052-60.298l-0.356 0.795c9.924-16.47 27.713-27.316 48.036-27.316 0.363 0 0.724 0.003 1.085 0.010l-0.054-0.001c1.47-0.094 3.187-0.148 4.916-0.148 27.183 0 51.274 13.24 66.176 33.623l0.161 0.231c20.215 27.766 33.49 61.779 36.643 98.68l0.050 0.733zM1500.16 611.413l134.827 298.667h92.16l-197.547-400.64h-85.333l-71.253 402.347h85.333zM1962.667 684.8h-153.6l-17.067-108.8h180.48l-9.813-64.853h-263.68l69.973 400.64h260.693l-11.947-66.987h-179.627l-17.067-95.573h154.453zM2181.12 657.92h-65.28l-25.173-146.773h-81.067l69.547 400.64h132.693c3.061 0.222 6.631 0.348 10.231 0.348 34.873 0 66.977-11.852 92.505-31.747l-0.336 0.252c20.534-18.15 33.416-44.552 33.416-73.962 0-4.915-0.36-9.745-1.054-14.467l0.065 0.536c-2.060-53.926-37.976-98.941-87.008-114.53l-0.885-0.243 56.32-162.56v-4.267h-85.333zM2127.36 724.48h59.733c0.501-0.011 1.092-0.017 1.685-0.017 19.317 0 37.134 6.418 51.436 17.239l-0.214-0.155c13.521 11.139 22.665 27.165 24.718 45.34l0.029 0.314c0.944 3.676 1.486 7.897 1.486 12.244 0 11.454-3.761 22.029-10.116 30.559l0.097-0.136c-9.325 9.239-22.161 14.948-36.331 14.948-0.427 0-0.854-0.005-1.278-0.016l0.063 0.001h-70.4zM42.667-15.787l69.547 400.64h125.44c2.876 0.176 6.239 0.276 9.624 0.276 35.108 0 67.696-10.79 94.629-29.234l-0.573 0.371c20.196-16.322 33.004-41.091 33.004-68.852 0-3.552-0.21-7.056-0.617-10.498l0.040 0.417c-3.16-41.835-31.451-76.307-69.687-88.55l-0.713-0.197c16.202-5.52 29.309-16.551 37.372-30.811l0.175-0.336c7.218-12.983 11.468-28.475 11.468-44.959 0-2.948-0.136-5.865-0.402-8.743l0.028 0.369c-0.504-35.571-16.934-67.204-42.464-88.158l-0.203-0.162c-28.29-19.915-63.463-31.829-101.418-31.829-3.347 0-6.673 0.093-9.974 0.276l0.459-0.020zM153.6 158.72l-18.773-108.373h64c1.284-0.073 2.786-0.114 4.298-0.114 16.856 0 32.51 5.144 45.479 13.949l-0.283-0.182c13.656 9.749 22.842 25.004 24.306 42.455l0.014 0.212c0.802 3.352 1.263 7.201 1.263 11.157 0 10.132-3.019 19.559-8.205 27.431l0.116-0.188c-7.876 9.24-19.525 15.062-32.533 15.062-1.164 0-2.317-0.047-3.457-0.138l0.15 0.010zM163.413 217.173h55.040c0.307-0.004 0.669-0.006 1.032-0.006 18.181 0 35.098 5.415 49.225 14.721l-0.337-0.208c12.47 8.822 21.040 22.449 23.012 38.129l0.028 0.271c4.693 32-12.373 48.213-50.773 48.64h-58.88zM554.667-21.333c-0.056 0-0.121 0-0.187 0-25.704 0-49.779 6.972-70.438 19.128l0.652-0.355c-20.79 12.439-37.278 30.16-47.888 51.337l-0.325 0.717c-11.84 22.693-19.274 49.388-20.467 77.697l-0.013 0.383c-0.231 4.452-0.362 9.665-0.362 14.908 0 29.010 4.027 57.079 11.552 83.68l-0.523-2.161c8.921 34.381 23.615 64.46 43.158 90.717l-0.491-0.69c16.996 24.274 39.043 43.864 64.715 57.545l0.991 0.482c22.439 11.608 48.981 18.414 77.113 18.414 1.69 0 3.375-0.025 5.054-0.073l-0.246 0.006c0.161 0.001 0.351 0.001 0.541 0.001 25.924 0 50.181-7.136 70.914-19.55l-0.629 0.349c19.533-12.559 34.983-29.926 44.906-50.464l0.321-0.736c11.654-22.592 18.939-49.15 20.042-77.296l0.011-0.357c0.248-4.744 0.389-10.299 0.389-15.888 0-29.857-4.035-58.772-11.59-86.229l0.534 2.277c-8.627-33.822-23.354-63.38-43.079-88.875l0.413 0.555c-16.822-23.621-38.578-42.648-63.859-55.847l-0.994-0.473c-23.164-12.101-50.593-19.201-79.681-19.201-0.187 0-0.374 0-0.561 0.001h0.029zM669.013 195.413l2.133 26.453c0.613 4.703 0.962 10.143 0.962 15.665 0 21.391-5.247 41.557-14.525 59.28l0.336-0.705c-9.924 15.977-27.375 26.456-47.275 26.456-0.18 0-0.36-0.001-0.539-0.003h0.027c-1.066 0.048-2.316 0.075-3.573 0.075-32.478 0-60.718-18.144-75.137-44.849l-0.223-0.453c-21.199-36.656-33.707-80.636-33.707-127.537 0-0.163 0-0.326 0-0.488v0.025c-0.57-4.679-0.896-10.097-0.896-15.59 0-21.652 5.056-42.124 14.052-60.298l-0.356 0.795c9.924-16.47 27.713-27.316 48.036-27.316 0.363 0 0.724 0.003 1.085 0.010l-0.054-0.001c1.47-0.094 3.187-0.148 4.916-0.148 27.183 0 51.274 13.24 66.176 33.623l0.161 0.231c20.587 28.22 34.041 62.845 37.074 100.414l0.046 0.706zM1039.36 157.867h-153.6l-18.347-107.52h180.48l-11.52-66.133h-261.547l69.973 400.64h260.693l-11.947-64.853h-179.627l-17.92-97.28h154.453zM1237.333 144.213l-52.48-49.067-19.627-110.933h-80.213l69.973 400.64h82.347l-31.147-176.64 42.667 46.080 116.48 130.56h104.96l-170.667-182.187 103.253-218.453h-93.44zM1521.067-15.787h-80.64l69.12 400.64h80.64zM1914.027-15.787h-79.36l-111.787 267.093-46.507-267.093h-79.36l69.973 400.64h77.653l111.787-267.52 46.507 267.52h80.213zM2307.413 34.987c-16.285-19.593-37.7-34.395-62.19-42.396l-0.956-0.27c-24.929-8.772-53.673-13.84-83.6-13.84-3.46 0-6.905 0.068-10.333 0.202l0.493-0.015c-0.855-0.018-1.862-0.029-2.871-0.029-25.419 0-49.284 6.655-69.947 18.318l0.712-0.37c-20.899 12.282-37.612 29.679-48.731 50.511l-0.336 0.689c-11.855 22.010-19.174 48.030-20.047 75.675l-0.007 0.271c-0.275 5.121-0.431 11.116-0.431 17.148 0 26.899 3.111 53.070 8.994 78.175l-0.456-2.31c7.076 35.552 20.444 67.063 38.996 94.813l-0.596-0.947c30.739 48.045 83.822 79.436 144.236 79.436 1.792 0 3.578-0.028 5.358-0.082l-0.261 0.006c1.674 0.073 3.638 0.114 5.611 0.114 35.639 0 68.129-13.487 92.643-35.634l-0.12 0.107c24.501-25.482 39.817-59.952 40.531-97.994l0.002-0.139h-77.653c-0.656 18.801-7.296 35.933-18.061 49.68l0.141-0.187c-11.016 10.563-25.996 17.067-42.496 17.067-0.060 0-0.12 0-0.18 0h0.009c-1.872 0.146-4.053 0.229-6.253 0.229-32.709 0-61.12-18.403-75.443-45.42l-0.224-0.463c-20.954-37.806-33.286-82.899-33.286-130.872 0-0.64 0.002-1.28 0.007-1.92l-0.001 0.098c-0.614-4.491-0.964-9.682-0.964-14.954 0-21.348 5.743-41.355 15.769-58.56l-0.298 0.554c10.964-16.086 29.199-26.51 49.869-26.51 0.918 0 1.832 0.021 2.74 0.061l-0.129-0.005c2.258-0.164 4.891-0.258 7.547-0.258 23.143 0 44.625 7.114 62.377 19.276l-0.377-0.244 13.653 69.12h-73.387l11.093 60.587h152.747z" />
<glyph unicode="&#xe907;" glyph-name="check_box" d="M810.667 832h-597.333c-47.36 0-85.333-38.4-85.333-85.333v-597.333c0-46.933 37.973-85.333 85.333-85.333h597.333c47.36 0 85.333 38.4 85.333 85.333v597.333c0 46.933-37.973 85.333-85.333 85.333zM426.667 234.667l-213.333 213.333 60.16 60.16 153.173-152.747 323.84 323.84 60.16-60.587-384-384z" />
<glyph unicode="&#xe908;" glyph-name="help_page" d="M512 40.96c-3.939 0.141-7.594 1.231-10.782 3.047l0.116-0.061c-191.147 115.627-432.213 75.947-434.773 75.52-1.025-0.186-2.204-0.292-3.408-0.292-5.081 0-9.72 1.889-13.254 5.004l0.022-0.019c-4.441 3.627-7.254 9.103-7.254 15.235 0 0.044 0 0.088 0 0.131v-0.007 636.587c0.248 5.134 2.313 9.743 5.559 13.24l-0.012-0.013c156.587 165.973 463.787-36.693 475.307-45.653 5.426-3.551 8.961-9.601 8.961-16.476 0-0.058 0-0.116-0.001-0.173v0.009-665.6c0.001-0.076 0.002-0.166 0.002-0.256 0-7.399-4.094-13.842-10.141-17.186l-0.101-0.051c-2.95-1.692-6.448-2.774-10.178-2.984l-0.062-0.003zM170.667 168.96c3.188 0.052 6.95 0.081 10.719 0.081 112.558 0 218.966-26.336 313.396-73.181l-4.115 1.847v618.24c-48.213 30.72-285.867 168.107-405.333 52.053v-605.013c25.528 2.922 55.19 4.625 85.237 4.693h0.097zM512 40.96c-3.792 0.213-7.29 1.294-10.355 3.047l0.115-0.061c-6.147 3.396-10.242 9.838-10.242 17.237 0 0.090 0.001 0.18 0.002 0.27v-0.014 665.6c0 0.049-0.001 0.107-0.001 0.164 0 6.875 3.535 12.924 8.886 16.43l0.075 0.046c11.52 8.96 318.72 211.627 475.307 45.653 3.415-3.69 5.519-8.637 5.547-14.074v-124.593c0.003-0.128 0.005-0.28 0.005-0.431 0-11.075-8.978-20.053-20.053-20.053-0.152 0-0.303 0.002-0.454 0.005h0.022c-0.511-0.045-1.106-0.071-1.707-0.071-11.311 0-20.48 9.169-20.48 20.48 0 0.025 0 0.050 0 0.075v-0.004 117.333c-119.467 116.053-357.12-21.333-406.187-52.053v-619.52c93.678 45.153 203.696 71.537 319.876 71.537 30.413 0 60.405-1.808 89.872-5.322l-3.562 0.346v341.333c0.234 11.216 9.264 20.246 20.458 20.48h0.022c11.311 0 20.48-9.169 20.48-20.48v0-363.093c0-0.037 0-0.081 0-0.125 0-6.133-2.813-11.608-7.219-15.207l-0.035-0.028c-3.512-3.096-8.151-4.985-13.232-4.985-1.204 0-2.383 0.106-3.529 0.31l0.121-0.018c-2.56 0-243.627 40.107-434.773-75.52-2.503-2.118-5.503-3.736-8.795-4.654l-0.165-0.039z" />
<glyph unicode="&#xe909;" glyph-name="start_chat" d="M507.307 335.787c-44.15 10.068-82.758 29.376-115.282 55.868l0.508-0.401c-62.787 55.882-103.748 135.107-109.182 223.935l-0.045 0.919c0 6.4 0 26.027 17.92 31.573 2.305 0.849 4.967 1.34 7.744 1.34 5.298 0 10.178-1.788 14.070-4.793l-0.053 0.040c2.987 45.227 11.093 98.133 11.52 101.12 1.415 8.797 8.269 15.652 16.949 17.051l0.117 0.016c0.907 0.142 1.953 0.224 3.018 0.224 7.971 0 14.878-4.553 18.262-11.201l0.054-0.116c25.6-52.48 178.773-59.733 244.053-62.72 45.653 0 55.467-2.987 64-10.24 8.018-9.66 12.884-22.187 12.884-35.85 0-3.617-0.341-7.154-0.992-10.581l0.056 0.351c8.153-0.478 15.363-4.157 20.457-9.788l0.023-0.026c15.787-16.64 11.52-46.507-13.227-102.827-39.253-87.893-167.68-175.36-181.333-180.907-3.364-1.616-7.283-2.686-11.416-2.981l-0.104-0.006zM327.253 584.107c12.417-63.593 44.065-118.343 88.548-159.392l0.199-0.181c25.27-20.512 54.939-36.813 87.244-47.248l1.929-0.539c24.32 14.507 128 90.027 157.44 158.72 8.026 15.148 14.889 32.75 19.675 51.19l0.378 1.717c-0.844-0.1-1.822-0.158-2.813-0.158-5.328 0-10.269 1.655-14.337 4.479l0.083-0.055c-12.8 8.96-12.373 24.747-11.947 40.533v12.8l-37.547 2.133c-93.44 4.267-192.853 13.227-247.040 49.067-3.249-23.714-5.549-52.047-6.373-80.751l-0.027-1.169c0-6.4 0-26.453-17.067-32.427-2.327-0.972-5.031-1.536-7.867-1.536-3.86 0-7.475 1.046-10.578 2.87l0.098-0.053zM674.56 626.773v0zM387.413 448c-0.37-0.005-0.807-0.008-1.244-0.008-19.959 0-38.463 6.229-53.674 16.85l0.305-0.201c-4.656 3.785-7.607 9.512-7.607 15.929 0 11.311 9.169 20.48 20.48 20.48 3.741 0 7.247-1.003 10.265-2.755l-0.098 0.053c8.874-6.026 19.823-9.621 31.612-9.621 3.912 0 7.731 0.396 11.42 1.15l-0.366-0.062c1.68 0.496 3.609 0.782 5.606 0.782 9.153 0 16.904-6.005 19.528-14.29l0.040-0.145c0.585-1.796 0.922-3.863 0.922-6.009 0-8.968-5.886-16.561-14.006-19.125l-0.142-0.039c-6.561-1.901-14.097-2.995-21.889-2.995-0.405 0-0.809 0.003-1.212 0.009l0.061-0.001zM435.2 428.8c-26.863 0-48.64 21.777-48.64 48.64s21.777 48.64 48.64 48.64c26.863 0 48.64-21.777 48.64-48.64v0c0-26.863-21.777-48.64-48.64-48.64v0zM435.2 485.12c-4.242 0-7.68-3.438-7.68-7.68v0c0-8.533 15.36-8.533 15.36 0 0 4.242-3.438 7.68-7.68 7.68v0zM730.88 258.987c-3.893 0.032-7.559 0.975-10.805 2.624l0.138-0.064c-5.931 3.658-9.826 10.119-9.826 17.49 0 3.946 1.116 7.631 3.049 10.757l-0.051-0.088c30.743 72.959 48.607 157.774 48.607 246.762 0 38.838-3.403 76.881-9.926 113.847l0.572-3.916c-14.52 87.997-66.271 161.631-138.213 205.342l-1.307 0.738c-31.167 15.425-67.863 24.449-106.667 24.449s-75.499-9.024-108.103-25.089l1.436 0.64c-81.493-42.667-141.227-170.667-148.48-317.44-0.676-9.281-1.061-20.107-1.061-31.024 0-78.304 19.825-151.977 54.729-216.275l-1.188 2.392c1.956-3.082 3.117-6.836 3.117-10.861 0-7.243-3.76-13.609-9.436-17.25l-0.082-0.049c-3.064-1.861-6.768-2.963-10.729-2.963-7.247 0-13.632 3.687-17.383 9.287l-0.048 0.076c-37.795 67.452-60.054 148.024-60.054 233.795 0 11.867 0.426 23.634 1.264 35.288l-0.090-1.563c8.107 158.72 76.373 298.667 170.667 351.147 36.79 18.484 80.171 29.306 126.080 29.306s89.29-10.822 127.732-30.054l-1.652 0.748c83.639-50.363 142.986-133.818 160.133-231.789l0.293-2.025c28.587-132.693-6.827-322.987-42.667-384-3.59-6.234-10.216-10.364-17.807-10.364-0.791 0-1.572 0.045-2.34 0.132l0.094-0.009zM597.333-0.853c0-11.311-9.169-20.48-20.48-20.48v0h-415.573c-10.404 0.109-18.979 7.801-20.466 17.806l-0.014 0.114c-3.923 31.489-6.162 67.935-6.162 104.904 0 6.47 0.069 12.925 0.205 19.362l-0.016-0.96c1.586 51.52 28.449 96.442 68.55 122.953l0.57 0.354c28.029 16.475 61.549 33.203 96.203 47.768l5.771 2.152c18.773 8.533 37.547 16.64 53.76 24.747 21.053 12.114 34.999 34.484 34.999 60.111 0 0.467-0.005 0.933-0.014 1.398l0.001-0.070c0 0.005 0 0.011 0 0.017 0 11.246 8.88 20.419 20.011 20.888l0.042 0.001c0.005 0 0.012 0 0.018 0 11.011 0 19.992-8.689 20.461-19.584l0.001-0.042c0.010-0.565 0.016-1.232 0.016-1.9 0-41.883-23.21-78.344-57.47-97.224l-0.573-0.289-55.467-25.173c-38.154-15.79-69.851-31.66-100.291-49.446l3.864 2.086c-29.801-20.229-49.372-53.596-50.344-91.587l-0.003-0.146c-0.119-4.671-0.188-10.171-0.188-15.686 0-28.158 1.773-55.901 5.215-83.125l-0.334 3.238h397.227c11.311 0 20.48-9.169 20.48-20.48v0zM879.36-4.693c-1.865-9.52-10.127-16.608-20.050-16.64h-113.496c-0.128-0.003-0.28-0.005-0.431-0.005-11.075 0-20.053 8.978-20.053 20.053 0 0.152 0.002 0.303 0.005 0.454v-0.022c-0.003 0.128-0.005 0.28-0.005 0.431 0 11.075 8.978 20.053 20.053 20.053 0.152 0 0.303-0.002 0.454-0.005h96.405c4.234 21.332 6.656 45.858 6.656 70.949 0 18.618-1.334 36.925-3.911 54.83l0.242-2.046c-22.613 51.627-98.133 94.293-139.093 110.933l-12.8 4.693c-68.008 14.781-118.848 72.596-122.861 142.948l-0.019 0.412c-0.012 0.26-0.019 0.564-0.019 0.87 0 11.017 8.699 20.003 19.604 20.462l0.042 0.001c0.255 0.012 0.553 0.018 0.853 0.018 11.075 0 20.053-8.978 20.053-20.053 0-0.006 0-0.013 0-0.019v0.001c2.56-72.533 58.88-92.587 96.427-106.24l14.080-5.547c20.907-8.533 128-55.040 162.133-133.973 3.386-20.887 5.32-44.964 5.32-69.493 0-32.953-3.491-65.090-10.124-96.062l0.537 2.996zM505.173 48.213c-56.747 0-124.587 143.787-160 229.12l38.827 17.493c42.667-107.093 101.12-203.093 122.453-205.653s85.333 100.267 139.093 208.213l37.12-20.053c-33.28-67.84-116.48-226.56-172.8-231.253z" />
<glyph unicode="&#xe90a;" glyph-name="category_436" d="M912.213 468.907c20.053 40.107 42.667 346.88 27.733 368.64-6.827 9.813-19.627 16.213-253.44 65.28-40.075 10.167-86.082 16.002-133.451 16.002-14.448 0-28.769-0.543-42.944-1.609l1.888 0.114c-272.213-26.88-281.6-20.907-279.467-42.667 4.267-42.667 119.467 12.373 327.68 11.52 17.92 0-16.213 9.387 8.107-225.707-170.667-18.347-152.32-23.893-151.893-13.227 0 35.84 2.56 106.24 2.133 112.64 0 12.8 0 29.44-197.12 81.92-1.28 0.351-2.75 0.552-4.267 0.552-9.259 0-16.765-7.506-16.765-16.765 0-7.742 5.248-14.259 12.381-16.186l0.117-0.027c67.404-17.996 124.312-38.102 179.176-62.020l-8.083 3.14c-2.987-233.813-11.093-312.32 21.333-316.16 11.093 0 420.267 61.44 444.16 93.867-4.693 20.907 3.84 18.773-124.16 69.12-35.413 14.080-99.84 39.253-124.16 52.907 0 15.787-23.893 234.24 0 232.107 123.562-19.857 227.306-42.583 328.971-70.347l-21.771 5.067c0-49.067-8.533-293.547-28.587-333.227-19.181-44.346-58.039-77.016-105.257-87.287l-0.983-0.179c-67.413-17.493-311.893-68.693-327.68-70.4-34.56 0-62.293-12.373-141.653 56.32-90.88 80.64-168.533 111.787-176.213 180.907-20.48 165.547-8.96 213.333-17.92 225.28-3.069 4.045-7.879 6.63-13.292 6.63-8.67 0-15.791-6.631-16.569-15.098l-0.005-0.065c0.727-78.731 5.667-155.443 14.609-230.928l-0.956 9.915c7.68-62.293 55.467-97.707 115.627-142.507 85.333-63.573 139.947-125.867 213.333-125.867 52.053 0 42.667 26.453 42.667-58.453-85.333-3.84-217.6-42.667-217.6-128 0-168.533 465.067-168.533 465.067 0 0 85.333-128 122.453-213.333 128 0 79.787 0 69.12 3.84 70.4 319.147 64 360.107 68.693 408.747 166.4zM713.813 566.187c-2.56-6.827-2.133-5.547 0 0l72.96-29.44c-89.6-19.2-298.667-59.307-364.373-67.84-5.973 0-4.693 0-5.547 4.267-3.84 30.293-2.987 101.973-2.56 131.84 35.413 7.68 128 17.92 163.413 20.907 37.425-20.255 82.327-40.394 128.747-57.378l7.359-2.355zM503.893 197.973c96.853-5.973 175.787-48.64 175.787-91.307s-80.213-93.44-199.253-93.44-198.827 46.507-198.827 93.44 80.213 85.333 178.347 91.307c7.253 0 5.547 8.96 5.547-55.893 0-9.19 7.45-16.64 16.64-16.64s16.64 7.45 16.64 16.64v0c0 64.427-2.133 55.893 5.12 55.893z" />
<glyph unicode="&#xe90b;" glyph-name="category_107" d="M981.333 610.987c-8.862 56.299-57.031 98.847-115.138 98.847-2.875 0-5.725-0.104-8.547-0.309l0.378 0.022h-85.333v51.2c0.095 1.509 0.149 3.271 0.149 5.047 0 23.938-9.856 45.573-25.732 61.070l-0.017 0.017c-13.236 11.309-30.551 18.19-49.473 18.19-2.26 0-4.497-0.098-6.707-0.29l0.287 0.020c-444.16 0-438.187 29.867-438.187-135.253h-102.4c-11.782 0-21.333-9.551-21.333-21.333s9.551-21.333 21.333-21.333v0h707.413c2.389 0.265 5.158 0.416 7.963 0.416 36.738 0 67.418-25.94 74.722-60.504l0.088-0.499v-115.627c-391.68-194.56-816.64-17.067-855.467 0 0 76.373 6.4 103.68-20.48 103.68s-20.053 0-20.053-426.667c-0.217-2.602-0.341-5.631-0.341-8.69 0-61.267 49.667-110.933 110.933-110.933 2.071 0 4.129 0.057 6.172 0.169l-0.284-0.012h725.333c53.642 5.869 95.010 50.926 95.010 105.645 0 2.762-0.105 5.499-0.312 8.208l0.022-0.36zM333.653 804.267h360.533c5.12 0 38.827 4.267 38.827-42.667v-51.2h-439.467c-0.427 55.467-9.813 93.013 40.107 93.867zM85.333 206.933c5.671 1.001 12.201 1.573 18.865 1.573 62.916 0 113.92-51.004 113.92-113.92 0-1.604-0.033-3.199-0.099-4.787l0.007 0.227c-122.027 0-132.693 9.813-132.693 116.907zM256 90.027c0.048 1.43 0.075 3.112 0.075 4.799 0 84.831-68.769 153.6-153.6 153.6-6.039 0-11.998-0.349-17.855-1.027l0.714 0.067v200.533c117.023-47.223 252.502-77.885 394.152-85.207l3.074-0.127v-42.667c0-26.88 69.973-26.88 69.973 0v39.68c141.164 0.155 274.949 31.59 394.847 87.743l-5.727-2.41v-197.547c-3.737 0.325-8.085 0.51-12.477 0.51-84.36 0-152.747-68.387-152.747-152.747 0-1.98 0.038-3.951 0.112-5.913l-0.009 0.283c-146.773-0.427-392.533 0-520.533 0.427zM814.507 90.027c-0.096 1.739-0.151 3.774-0.151 5.821 0 61.974 50.24 112.213 112.213 112.213 4.413 0 8.766-0.255 13.046-0.75l-0.521 0.049c1.707-100.693 5.12-117.333-122.88-117.76z" />
<glyph unicode="&#xe90c;" glyph-name="category_1" d="M498.773 459.947c-97.28 0-181.333-91.733-224.427-177.493-1.357-2.663-2.152-5.808-2.152-9.138 0-11.311 9.169-20.48 20.48-20.48 2.295 0 4.503 0.378 6.563 1.074l-0.144-0.042c20.053 6.827 78.080 162.133 196.267 165.12 102.827 3.84 213.333-150.187 247.467-245.76s-60.16-141.227-148.48-95.573c-98.56 51.627-181.333 0-219.307-10.24-22.613-6.827-107.093-15.787-130.56 11.947-10.667 12.373-8.107 33.707 6.827 63.573 1.325 2.681 2.1 5.837 2.1 9.173 0 11.646-9.441 21.087-21.087 21.087-8.309 0-15.495-4.806-18.932-11.789l-0.055-0.124c-22.613-46.080-23.467-82.347 0-107.947 42.667-50.347 153.6-30.72 173.653-25.173 36.693 11.093 105.813 56.747 188.587 13.227 23.494-15.638 52.366-24.953 83.413-24.953s59.919 9.315 83.973 25.303l-0.559-0.35c149.333 82.773-82.773 418.56-243.627 418.56zM253.013 342.187c65.707 34.987 65.28 132.267 27.307 203.52-66.987 125.44-199.68 134.4-231.253 30.293-37.973-121.6 98.133-289.707 203.947-233.813zM115.2 601.6c66.56 34.987 175.36-92.587 145.92-187.307-23.040-75.52-113.92-42.667-156.16 38.827-26.027 49.92-33.28 125.44 10.24 148.48zM970.24 561.92c-42.667 100.267-170.667 78.080-227.413-52.48-31.147-73.387-23.893-170.667 45.227-200.107 107.947-45.653 231.253 131.84 182.187 252.587zM803.84 348.587c-95.147 39.68 2.987 272.64 98.133 232.96s-3.413-274.773-98.133-234.667zM610.56 519.253c151.893-46.080 256 307.2 108.373 353.28s-258.133-307.627-108.373-353.28zM706.987 832c48.64-14.933 50.347-102.827 32.853-160.427-28.587-93.44-110.933-155.733-147.2-85.333-49.493 92.587 39.68 269.227 114.347 245.76zM403.2 513.28c114.773 0 108.8 206.080 96.853 206.080-30.72 147.2-151.040 207.36-212.053 115.627-70.827-106.24 1.28-321.707 115.2-321.707zM321.707 811.947c68.693 102.827 196.267-121.6 122.027-232.96-69.12-103.253-194.987 125.013-122.027 233.387z" />
<glyph unicode="&#xe90d;" glyph-name="category_141" d="M93.013 67.413c-31.69 32.986-51.205 77.875-51.205 127.321 0 6.249 0.312 12.426 0.92 18.514l-0.062-0.768c2.739 9.367 11.251 16.093 21.333 16.093s18.595-6.726 21.294-15.936l0.039-0.157c-0.601-4.966-0.944-10.716-0.944-16.547 0-36.507 13.446-69.873 35.655-95.417l-0.151 0.177c24.747-21.76-2.987-23.040 720.64-16.64 85.333 0 93.44 50.347 93.867 55.893s4.267 438.613 4.267 508.16c0 59.307-52.48 58.88-91.307 59.733-85.333 0-85.333-7.68-119.040 49.493-14.080 23.040-31.573 51.627-51.2 52.907-52.48 2.987-256 3.413-311.893 0-38.4-2.56-37.973-106.24-103.68-106.24-210.347 0-176.213 42.667-174.080-338.773-2.739-9.367-11.251-16.093-21.333-16.093s-18.595 6.726-21.294 15.936l-0.039 0.157v292.267c1.872 51.782 44.3 93.049 96.367 93.049 0.921 0 1.839-0.013 2.754-0.039l-0.134 0.003c138.667 0 122.88-10.667 144.64 35.84 12.8 27.307 30.293 65.28 72.107 67.84 57.173 3.84 262.827 2.987 317.44 0s85.333-85.333 104.96-101.12c70.4-2.133 198.4 16.213 198.4-104.533v-512s-5.547-97.707-137.813-98.987c-758.187-5.12-715.52-1.28-750.507 29.867zM512 147.2c-134.551 0-243.627 109.075-243.627 243.627s109.075 243.627 243.627 243.627c134.551 0 243.627-109.075 243.627-243.627v0c0-134.551-109.075-243.627-243.627-243.627v0zM512 590.080c-110.28 0-199.68-89.4-199.68-199.68s89.4-199.68 199.68-199.68c110.28 0 199.68 89.4 199.68 199.68 0 0.15 0 0.3 0 0.45v-0.023c0 0 0 0 0 0 0 110.045-89.209 199.253-199.253 199.253-0.15 0-0.3 0-0.45 0h0.023z" />
<glyph unicode="&#xe90e;" glyph-name="category_166" d="M829.44 807.253c-30.72 32-29.44 42.667-173.653 67.413-9.774 1.938-21.011 3.047-32.507 3.047-18.868 0-37.038-2.987-54.064-8.514l1.238 0.347c-19.647-5.41-42.207-8.519-65.493-8.519s-45.846 3.109-67.287 8.935l1.794-0.415c-15.622 3.514-34.57 6.384-53.875 7.999l-1.591 0.107c-66.577-12.887-123.84-28.67-179.276-48.313l8.61 2.66c-31.573-11.947-158.72-173.227-166.4-186.027-27.733-42.667 107.093-148.053 108.8-148.907 7.068-3.656 15.427-5.799 24.288-5.799 6.595 0 12.912 1.187 18.75 3.36l-0.372-0.121c0-51.2 0-180.907-3.413-298.667 0-11.075 8.978-20.053 20.053-20.053s20.053 8.978 20.053 20.053v0c2.552 47.527 4.006 103.167 4.006 159.147 0 55.978-1.454 111.615-4.327 166.878l0.32-7.731c19.337 50.236 30.539 108.357 30.539 169.094 0 42.705-5.537 84.116-15.933 123.555l0.755-3.369c32 9.813 81.493 23.893 110.080 30.293 23.467-164.267 279.467-172.373 299.947-1.707 42.577-3.694 81.815-14.168 117.928-30.363l-2.302 0.923c-10.98-38.172-17.294-82.017-17.294-127.336 0-61.613 11.671-120.501 32.923-174.572l-1.122 3.241c0-58.453 0-363.947-3.413-446.293h-499.2c-11.075 0-20.053-8.978-20.053-20.053s8.978-20.053 20.053-20.053h517.12c27.307 0 26.453 2.987 25.6 471.893 49.067-8.96 48.64-13.227 136.107 117.333 22.613 34.133 42.24 14.507-137.387 200.533zM85.333 628.907c43.758 57.897 86.524 108.781 131.697 157.397l-1.137-1.237c7.378-30.472 11.61-65.456 11.61-101.428 0-51.823-8.782-101.594-24.94-147.907l0.956 3.149c-7.472-3.413-16.19-6.218-25.279-7.986l-0.748-0.121c-35.19 28.396-65.587 60.69-91.16 96.653l-1 1.481zM403.627 834.987c170.667-23.893 101.973-10.667 216.747 2.133-17.92-122.88-193.707-116.907-216.747-2.133zM933.547 629.333c-23.945-38.944-48.995-72.682-76.652-104.070l0.705 0.816c-7.68 0-21.76 4.267-33.707 5.547-14.83 42.837-23.394 92.205-23.394 143.574 0 33.782 3.704 66.698 10.727 98.366l-0.56-3.006c142.080-148.907 128-136.533 122.88-141.227z" />
<glyph unicode="&#xe90f;" glyph-name="category_443" d="M829.867 372.053c58.88 92.16 82.773 374.613 39.253 464.64-47.787 98.987-658.347 115.627-714.24 0-6.4-14.080-15.787-34.56-10.24-42.667 2.825-7.017 9.575-11.881 17.462-11.881 3.127 0 6.075 0.764 8.668 2.117l-0.104-0.049c10.667 5.973 7.253 13.227 18.347 36.267s99.84 60.587 310.613 60.587c232.107 0 330.24-46.507 337.92-62.72 32.427-66.56 18.347-338.347-37.973-426.667-29.44-46.080-54.613-85.333-292.693-85.333s-265.387 51.627-288 89.6c-58.027 94.72-42.24 235.947-54.613 248.747-3.345 3.127-7.851 5.046-12.807 5.046-10.192 0-18.488-8.122-18.766-18.247l-0.001-0.026c0-346.027 170.667-319.147 160-341.333-110.933-294.827-122.027-300.8-96.853-311.467 1.92-0.726 4.14-1.146 6.458-1.146 7.861 0 14.593 4.832 17.39 11.687l0.045 0.125c121.6 327.253 108.8 295.253 113.067 294.4 53.606-8.757 115.392-13.76 178.347-13.76s124.74 5.003 184.982 14.635l-6.635-0.874c10.667 0 103.253-293.973 122.453-302.507 2.209-1.017 4.794-1.611 7.517-1.611 10.133 0 18.347 8.214 18.347 18.347 0 2.263-0.41 4.429-1.159 6.431l0.042-0.127c-167.253 443.733-111.36 202.667-6.827 367.787zM755.2 671.147c-73.89 14.958-158.825 23.519-245.76 23.519s-171.87-8.561-254.009-24.886l8.249 1.367c-85.333-18.347-64-144.64-36.267-174.080-1.492-6.411-2.347-13.772-2.347-21.333s0.855-14.922 2.474-21.993l-0.127 0.659c24.747-110.933 170.667-125.44 286.293-128s258.987 15.787 283.733 128c2.015 7.36 3.173 15.812 3.173 24.533s-1.158 17.173-3.328 25.208l0.155-0.675c24.747 39.68 11.947 91.307 21.76 91.307h-4.267c0.035 0.852 0.054 1.852 0.054 2.856 0 36.054-25.408 66.173-59.295 73.429l-0.493 0.088zM717.653 405.333c-85.333-49.067-322.987-49.92-409.173 0-27.005 14.686-45.027 42.846-45.027 75.214 0 7.073 0.861 13.946 2.483 20.518l-0.122-0.586c31.147 63.147 463.787 63.147 494.933 0 1.469-5.926 2.312-12.73 2.312-19.731 0-32.519-18.19-60.79-44.951-75.192l-0.454-0.224zM773.12 547.413c0-6.827 0-6.4-5.12-2.56-73.813 49.067-439.040 56.747-519.68-11.52-10.24 42.667-17.493 93.867 23.040 102.4 71.58 14.551 153.858 22.88 238.080 22.88s166.5-8.329 246.053-24.207l-7.973 1.328c37.547-8.533 33.707-52.907 25.6-90.027z" />
<glyph unicode="&#xe910;" glyph-name="category_457" d="M981.333 576c-1.057 35.699-30.249 64.235-66.106 64.235-1.962 0-3.904-0.085-5.823-0.253l0.249 0.018h-229.547c-19.142 34.090-48.65 60.429-84.199 75.105l-1.134 0.415c136.96 159.147 152.747 166.827 130.56 185.6s-23.467 5.547-176.64-170.667c-12.121 2.632-26.044 4.14-40.32 4.14s-28.199-1.508-41.62-4.373l1.3 0.232c-170.667 177.067-170.667 192.853-193.707 170.667s-2.56-28.16 149.333-187.733c-30.5-16.213-54.7-40.824-69.97-70.752l-0.43-0.928h-165.973c-11.782 0-21.333-9.551-21.333-21.333s9.551-21.333 21.333-21.333v0h566.187v-567.893c-685.653 0-668.16-16.213-668.16 38.827 0 431.36 8.533 426.667-21.333 426.667s-21.333-5.973-21.333-426.667c-0.036-0.891-0.057-1.937-0.057-2.988 0-43.228 34.938-78.296 78.117-78.506h789.353c53.76 0 69.12 52.907 69.973 81.493zM628.907 640h-224.853c28.29 30.43 68.544 49.407 113.23 49.407 43.862 0 83.454-18.283 111.57-47.645l0.053-0.056zM911.36 29.44h-115.2v569.6c123.307 0 142.507 6.827 142.507-23.040 0-516.267 11.947-544.853-27.307-544.853zM866.56 543.573c-23.698-2.345-42.057-22.175-42.057-46.293s18.359-43.948 41.864-46.278l0.193-0.015c23.698 2.345 42.057 22.175 42.057 46.293s-18.359 43.948-41.864 46.278l-0.193 0.015zM866.56 378.453c-23.698-2.345-42.057-22.175-42.057-46.293s18.359-43.948 41.864-46.278l0.193-0.015c23.698 2.345 42.057 22.175 42.057 46.293s-18.359 43.948-41.864 46.278l-0.193 0.015z" />
<glyph unicode="&#xe911;" glyph-name="category_469" d="M582.827 52.907c-120.747 53.76 237.653 448.427-184.747 432.213-19.627 0-85.333-30.72-106.667-34.133-42.667-5.973-60.587 144.213-60.16 168.533 6.4 236.8 73.387 169.813 173.227 139.093 11.52 0 338.347 180.48 484.267 46.933 3.887-3.548 6.317-8.637 6.317-14.293 0-10.676-8.654-19.33-19.33-19.33-5.019 0-9.592 1.913-13.028 5.050l0.015-0.014c3.84 0-63.573 55.040-197.547 32-170.667-29.867-224.427-106.667-295.68-78.933s-95.147 51.627-99.413-111.36c3.142-46.773 12.425-90.356 27.082-131.385l-1.055 3.385c192.853 63.573 302.507 6.827 326.4-42.667 87.893-178.773-73.387-338.773-23.467-361.813 139.52-63.573 128 327.253 222.293 372.907 78.933 38.4 153.173 94.72 106.667 222.293-0.338 1.363-0.532 2.927-0.532 4.537 0 10.84 8.787 19.627 19.627 19.627 7.675 0 14.32-4.405 17.547-10.824l0.051-0.113c69.547-190.72-97.28-247.040-139.52-277.333-57.173-69.973-60.16-447.147-242.347-364.373zM194.987 699.307c-40.919 10.597-75.986 23.141-109.564 38.392l4.177-1.698c-7.466 2.78-12.688 9.847-12.688 18.133 0 10.66 8.642 19.302 19.302 19.302 2.373 0 4.647-0.428 6.747-1.212l-0.133 0.044 98.56-35.413c7.934-2.478 13.593-9.76 13.593-18.363 0-10.604-8.596-19.2-19.2-19.2-0.279 0-0.556 0.006-0.832 0.018l0.039-0.001zM77.653 483.84c-10.265 0.703-18.326 9.202-18.326 19.584 0 9.473 6.711 17.379 15.639 19.221l0.127 0.022 103.253 15.36c28.16 3.84 61.44-54.187-100.693-54.187zM167.68 602.88c-181.76 0-115.2 42.667-103.68 42.667l106.667-3.84c9.008-1.902 15.671-9.785 15.671-19.224 0-10.499-8.243-19.072-18.611-19.601l-0.047-0.002zM718.933 497.067c-164.267 0-164.267 249.6 0 249.6s165.547-249.6 0-249.6zM718.933 710.4c-47.717 0-86.4-38.683-86.4-86.4s38.683-86.4 86.4-86.4v0c47.246 0 85.547 38.301 85.547 85.547s-38.301 85.547-85.547 85.547v0z" />
<glyph unicode="&#xe912;" glyph-name="category_536" d="M950.613 502.613l-116.053 85.333c99.413 219.307-264.96 408.747-249.173 183.893-53.333 39.253-42.667 28.16-51.627 49.067-6.59 16.957-21.125 29.516-38.907 33.22l-0.346 0.060c-39.68 8.533-34.133 0-330.667-295.68-9.831-9.81-15.912-23.373-15.912-38.357 0-22.752 14.022-42.228 33.896-50.26l0.364-0.13c22.613-8.96-4.267 20.907 162.56-204.8-306.773-72.96-306.773-66.133-302.080-91.307 2.172-8.398 9.681-14.501 18.616-14.501 1.416 0 2.796 0.153 4.124 0.444l-0.127-0.023c294.4 70.827 349.44 72.533 324.693 105.813-192 261.547-159.147 225.28-193.707 239.36-6.7 2.406-11.405 8.704-11.405 16.1 0 4.925 2.086 9.362 5.422 12.477l0.010 0.009c349.44 348.587 279.040 298.667 321.707 249.173 21.333-26.88 430.933-298.667 433.92-338.347 0-25.173 13.653-5.547-354.133-372.907-6.992-6.833-16.568-11.049-27.128-11.049-12.564 0-23.734 5.968-30.831 15.223l-0.068 0.093c-29.44 40.107-26.453 36.693-37.12 36.267h-419.413c-10.25 0-18.56-8.31-18.56-18.56s8.31-18.56 18.56-18.56v0c469.333 0 404.48 8.107 426.667-21.333 13.991-18.727 36.101-30.721 61.013-30.721 0.15 0 0.3 0 0.45 0.001h-0.023c42.667 0 23.467-7.68 396.373 364.8 13.129 13.693 21.213 32.314 21.213 52.822 0 25.664-12.659 48.372-32.073 62.22l-0.233 0.158zM803.413 610.987l-174.507 128c-60.587 206.080 241.493 50.347 174.507-128z" />
<glyph unicode="&#xe913;" glyph-name="category_594" d="M850.773 782.080c-31.307 29.792-73.763 48.121-120.5 48.121-15.399 0-30.333-1.99-44.559-5.726l1.218 0.272-67.413 65.28c-15.428 11.681-34.94 18.711-56.094 18.711-51.605 0-93.44-41.835-93.44-93.44 0-22.757 8.135-43.613 21.655-59.82l-0.121 0.149c23.467-22.613 56.747 30.72-256-335.36-3.813 0.966-8.189 1.521-12.696 1.521-29.691 0-53.76-24.069-53.76-53.76s24.069-53.76 53.76-53.76c6.068 0 11.9 1.005 17.341 2.858l-0.379-0.112c331.52-317.44 298.667-278.613 289.707-292.693h-115.627c-23.564 0-42.667-19.103-42.667-42.667v0c0-5.973-45.227-3.84 404.48-3.84 0.049 0.765 0.077 1.659 0.077 2.56 0 23.564-19.103 42.667-42.667 42.667-0.027 0-0.054 0-0.081 0h-111.783c-9.362 16.338-26.654 27.194-46.491 27.307h-0.016c-3.84 0 15.787-16.64-305.92 291.413 4.732 7.729 7.534 17.084 7.534 27.093s-2.802 19.365-7.665 27.324l0.131-0.23 268.8 314.88 22.187-21.333c-21.333-103.253 42.667-156.16 88.747-199.68 19.2-18.347 28.587 0 183.040 162.987 2.807 3.317 4.514 7.643 4.514 12.367 0 10.604-8.596 19.2-19.2 19.2-5.043 0-9.633-1.945-13.059-5.125l0.012 0.011-144.64-145.92c-34.133 32.853-85.333 76.8-61.44 159.147 4.267 16.213-2.987 17.067-80.64 91.733-10.398 9.961-16.861 23.959-16.861 39.467 0 30.166 24.455 54.621 54.621 54.621 14.659 0 27.969-5.774 37.78-15.173l-0.020 0.019 75.52-73.813c19.2-18.347 85.333 33.28 155.733-35.413 3.487-3.333 8.224-5.385 13.44-5.385 10.75 0 19.465 8.715 19.465 19.465 0 5.534-2.31 10.529-6.017 14.073l-0.007 0.007z" />
<glyph unicode="&#xe914;" glyph-name="category_632" d="M960.427 708.267c-60.587 50.347-162.133-204.8-275.627-85.333-128 132.693 92.16 174.080 90.453 256-2.133 93.867-379.307 20.907-302.080-302.933-275.2-256-259.84-235.093-259.84-247.040-0.004-0.157-0.007-0.342-0.007-0.528 0-11.311 9.169-20.48 20.48-20.48 5.258 0 10.053 1.981 13.679 5.238l-0.019-0.017c302.080 279.467 273.493 245.76 267.947 262.827 0 0-38.4 131.413 25.173 209.067 51.2 62.72 286.72 159.147 146.773 42.667-85.333-72.96-117.76-142.933-32-232.96s179.627-27.733 265.387 61.867c61.867 64.853-31.573-310.613-293.12-197.12-398.933-430.080-392.533-438.187-448.427-438.187-50.085 4.146-89.721 43.782-93.842 93.496l-0.025 0.37c3.413 79.36 92.16 100.267 64.427 131.84s-168.107-119.040-67.413-223.147c135.68-140.373 253.013 61.013 556.8 388.267 279.893-72.107 384.853 242.773 321.28 296.107z" />
<glyph unicode="&#xe915;" glyph-name="category_696" d="M512 917.333c-160.427 0-277.333-128-274.773-142.080 2.118-6.39 8.039-10.918 15.017-10.918 4.719 0 8.955 2.071 11.848 5.354l0.015 0.017c228.693 270.507 607.147 66.987 607.147-321.707 0-245.76-161.28-445.44-359.253-445.44s-358.827 199.68-358.827 445.44c0 75.52 12.373 94.72 6.4 103.253-2.996 3.701-7.54 6.048-12.631 6.048-6.832 0-12.677-4.225-15.064-10.206l-0.039-0.109c-51.627-293.547 133.547-568.32 380.16-568.32 213.333 0 388.693 210.347 388.693 469.333s-175.36 469.333-388.693 469.333zM512 803.413c-162.987 0-295.68-159.573-295.68-355.413s132.693-355.413 295.68-355.413 295.68 159.573 295.68 355.413-132.693 355.413-295.68 355.413zM512 116.48c-146.773 0-265.813 148.907-265.813 331.52s119.040 331.52 265.813 331.52 265.813-148.907 265.813-331.52-119.040-331.52-265.813-331.52zM610.133 381.013c-190.72 163.413-176.64 152.32-183.467 152.32-0.413 0.044-0.893 0.070-1.378 0.070-6.964 0-12.71-5.213-13.548-11.95l-0.007-0.067c0-6.827-11.947 5.547 179.2-158.293 11.093-9.387 32.427 6.827 19.2 17.92zM619.52 256.853c-128 109.653-120.32 104.96-128 104.96-0.401 0.043-0.865 0.068-1.336 0.068-6.878 0-12.53-5.25-13.167-11.961l-0.004-0.053c0-6.4-5.973 0 122.453-109.653 11.947-11.093 33.28 5.12 20.053 16.64z" />
<glyph unicode="&#xe916;" glyph-name="category_772" d="M512 917.333c-51.2 0-229.12-23.467-207.36-69.547 17.067-36.693 55.040 30.72 207.36 30.72 0.041 0 0.091 0 0.14 0 237.762 0 430.507-192.744 430.507-430.507s-192.744-430.507-430.507-430.507c-237.762 0-430.507 192.744-430.507 430.507 0 88.518 26.715 170.796 72.522 239.211l-0.982-1.558c2.002 3.004 3.194 6.696 3.194 10.667 0 10.718-8.689 19.407-19.407 19.407-6.748 0-12.691-3.444-16.169-8.67l-0.045-0.071c-48.827-72.866-77.926-162.528-77.926-258.987 0-259.206 210.128-469.333 469.333-469.333s469.333 210.128 469.333 469.333c0 259.206-210.128 469.333-469.333 469.333-0.054 0-0.108 0-0.162 0h0.008zM376.32 272.64c0 340.48 7.68 346.027-19.627 346.027s-19.2-6.4-19.2-347.307c1.698-9.254 9.701-16.174 19.321-16.174 10.074 0 18.375 7.59 19.498 17.363l0.008 0.091zM445.867 362.667c-26.027-133.973 156.587-143.787 170.667-26.453 0.012 0.648 0.019 1.412 0.019 2.178 0 41.398-20.401 78.032-51.698 100.395l-0.374 0.254c79.36 63.147 38.827 182.613-34.133 179.2s-107.947-110.507-30.72-177.067c-27.078-17.926-46.549-45.479-53.608-77.679l-0.152-0.828zM558.933 565.333c6.667-10.681 10.62-23.652 10.62-37.546 0-26.546-14.43-49.721-35.874-62.11l-0.346-0.184c-81.493 59.733-8.96 153.173 25.6 99.84zM532.053 418.133c136.107-113.493-70.827-177.92-48.213-61.013 6.914 26.709 24.44 48.42 47.698 60.764l0.515 0.249zM718.080 558.933c-24.32 0-19.2-21.333-19.2-103.253-58.027 0-79.36 4.693-79.36-19.2s23.467-19.2 79.36-19.2c0-88.32-5.973-109.653 19.2-109.653s19.627 27.307 19.627 109.653c57.173 0 76.373-4.693 76.373 19.2s-21.76 19.2-76.373 19.2c0 77.653 6.4 103.253-19.627 103.253z" />
<glyph unicode="&#xe917;" glyph-name="category_888" d="M512-21.333c-258.895 0.412-468.61 210.381-468.61 469.333 0 61.414 11.796 120.073 33.245 173.834l-1.115-3.167c2.808 7.055 9.579 11.952 17.493 11.952 10.371 0 18.778-8.407 18.778-18.778 0-2.457-0.472-4.803-1.329-6.953l0.045 0.127c-18.623-46.425-29.425-100.244-29.425-156.586 0-238.234 193.126-431.36 431.36-431.36s431.36 193.126 431.36 431.36c0 238.234-193.126 431.36-431.36 431.36-0.156 0-0.311 0-0.467 0h0.025c-228.267 0-278.613-143.787-311.467-106.24-3.369 3.392-5.451 8.066-5.451 13.227s2.082 9.834 5.452 13.228l-0.001-0.001c82.3 72.849 191.172 117.332 310.434 117.332 259.206 0 469.333-210.128 469.333-469.333 0-258.842-209.539-468.744-468.244-469.332h-0.056zM512 362.667c-47.128 0-85.333 38.205-85.333 85.333s38.205 85.333 85.333 85.333v0c47.128 0 85.333-38.205 85.333-85.333s-38.205-85.333-85.333-85.333v0zM512 495.787c-26.392 0-47.787-21.395-47.787-47.787s21.395-47.787 47.787-47.787v0c26.392 0 47.787 21.395 47.787 47.787s-21.395 47.787-47.787 47.787v0zM226.133 533.333c-0.101-0.001-0.221-0.002-0.341-0.002-20.501 0-37.12 16.619-37.12 37.12 0 5.568 1.226 10.851 3.423 15.591l-0.095-0.229c55.177 124.452 177.634 209.692 320 209.692s264.823-85.24 319.118-207.468l0.882-2.224c1.994-4.436 3.155-9.615 3.155-15.066 0-20.736-16.81-37.547-37.547-37.547-1.111 0-2.21 0.048-3.296 0.143l0.141-0.010c3.84 0-133.973 14.080-282.453 14.080-2.079 0.006-4.538 0.009-6.999 0.009-98.217 0-195.238-5.117-290.812-15.1l11.944 1.011zM798.293 570.88c-50.166 110.792-159.19 186.77-286.113 188.158l-0.18 0.002c-0.133 0-0.29 0-0.447 0-127.053 0-236.264-76.387-284.214-185.741l-0.779-1.993c85.751 9.554 185.172 15.005 285.867 15.005 100.693 0 200.113-5.45 297.981-16.071l-12.114 1.067zM573.867 152.32v114.347c0.843 59.214 47.423 107.281 105.952 110.494l0.288 0.013c42.667 2.133 83.2 4.693 124.587 8.107 99.84 0-7.253-209.92-181.76-268.373-3.442-1.149-7.404-1.811-11.521-1.811-20.623 0-37.363 16.627-37.545 37.207v0.017zM806.827 347.733q-61.867-5.12-125.44-7.68c-39.015-2.513-69.787-34.473-70.399-73.753l-0.001-0.060v-113.067c91.967 32.051 163.206 102.871 195.154 192.357l0.686 2.203zM416 115.2c-122.88 0-317.44 278.613-192.853 270.080 42.667-3.413 82.773-5.973 124.16-8.107 58.911-3.014 105.615-51.206 106.239-110.446l0.001-0.061v-114.347c-0.473-20.457-17.053-36.888-37.524-37.12h-0.022zM219.733 347.733c32.587-92.096 104.229-163.178 194.483-194.323l2.21-0.663v113.493c-0.629 39.479-31.629 71.519-70.623 73.804l-0.204 0.010c-42.667 0-125.44 7.68-125.44 7.68z" />
<glyph unicode="&#xe918;" glyph-name="category_922" d="M165.547 294.4c18.347 18.773 282.027 282.453 341.333 337.067 23.893 21.76 97.707 88.32 166.827 16.64 19.323-20.126 31.221-47.507 31.221-77.667 0-34.081-15.194-64.614-39.177-85.194l-0.15-0.126c-306.773-305.067-298.667-308.053-318.72-287.147s-16.213 13.653 289.28 317.013c15.938 13.472 25.99 33.477 25.99 55.83 0 18.349-6.774 35.116-17.957 47.937l0.074-0.087c-55.893 58.027-89.6 3.413-448.853-354.133-27.023-25.090-43.877-60.81-43.877-100.467 0-75.641 61.319-136.96 136.96-136.96 29 0 55.894 9.013 78.035 24.39l-0.451-0.296c29.867 20.48 384 381.867 463.787 480 0 0 134.827 175.787-5.973 298.667-88.747 76.373-170.667 53.333-265.387-7.68-18.347-14.080-265.387-261.547-426.667-426.667-3.805-3.858-9.090-6.249-14.933-6.249-11.581 0-20.969 9.388-20.969 20.969 0 5.737 2.304 10.936 6.038 14.722l-0.002-0.002c96.853 97.707 413.867 418.133 434.347 430.933 108.373 74.667 213.333 90.453 315.307 3.84 144.213-124.16 57.173-298.667 11.52-355.413-76.373-94.293-436.48-462.933-474.027-489.387-28.957-20.949-65.181-33.508-104.339-33.508-98.969 0-179.2 80.231-179.2 179.2 0 53.102 23.097 100.809 59.793 133.623l0.173 0.152z" />
<glyph unicode="&#xe919;" glyph-name="category_988" d="M632.747 797.867c-14.929 14.688-35.425 23.757-58.039 23.757-45.216 0-81.965-36.256-82.76-81.283l-0.001-0.075c0-42.667 21.333-55.893 128-164.267-9.813 0 11.52 17.067-250.027-244.48-102.4 104.107-113.067 128-157.44 128-0.020 0-0.044 0-0.068 0-45.928 0-83.381-36.283-85.259-81.75l-0.006-0.17c0-44.8 3.413-37.547 256-293.12 14.929-14.688 35.425-23.757 58.039-23.757 45.216 0 81.965 36.256 82.76 81.283l0.001 0.075c0 45.227-23.467 58.027-124.587 160.853 260.693 260.267 240.64 239.36 243.627 249.173 73.813-75.52 143.36-179.2 219.307-104.96 14.708 14.677 23.808 34.969 23.808 57.387s-9.099 42.71-23.806 57.385l-0.001 0.001zM481.28 141.227c-2.252-21.645-20.397-38.376-42.45-38.376-10.129 0-19.434 3.53-26.752 9.426l0.082-0.064-230.827 235.947c-2.984 5.675-4.735 12.401-4.735 19.535 0 23.564 19.103 42.667 42.667 42.667 7.357 0 14.278-1.862 20.32-5.14l-0.225 0.112c254.72-260.693 242.347-241.493 241.92-264.107zM775.68 475.733c-256 260.267-242.347 241.493-241.92 264.107 0 23.564 19.103 42.667 42.667 42.667v0c23.467 0 8.96 7.68 259.413-247.467 5.219-6.996 8.356-15.813 8.356-25.362 0-23.564-19.103-42.667-42.667-42.667-9.763 0-18.761 3.279-25.951 8.796l0.101-0.075zM166.827 251.307c-13.162 13.322-31.431 21.573-51.627 21.573-40.074 0-72.56-32.486-72.56-72.56 0-19.878 7.993-37.889 20.941-50.994l-0.007 0.007c149.76-152.32 149.76-161.707 189.013-162.133 0.085 0 0.185-0.001 0.285-0.001 40.059 0 72.533 32.474 72.533 72.533 0 19.358-7.583 36.945-19.941 49.952l0.029-0.031zM275.627 37.973c-29.867-29.867-46.933 2.133-182.187 140.373-26.88 27.733 15.36 72.107 42.667 42.667 136.533-136.96 168.107-154.453 139.52-182.187zM981.333 686.080c-9.387 42.667-79.787 115.627-87.893 123.733-3.557 2.892-8.143 4.644-13.138 4.644-11.546 0-20.907-9.36-20.907-20.907 0-5.208 1.904-9.971 5.054-13.631l-0.023 0.027c30.348-28.591 55.282-62.529 73.365-100.368l0.875-2.032c2.987-14.507-31.573-14.507-42.667-11.52-18.773 8.96-181.76 162.133-172.8 181.76 7.308 10.733 19.47 17.689 33.257 17.689 12.085 0 22.922-5.345 30.275-13.801l0.042-0.049c3.788-3.813 9.035-6.172 14.832-6.172 11.546 0 20.907 9.36 20.907 20.907 0 4.194-1.235 8.1-3.361 11.374l0.049-0.081c-55.040 68.267-173.227 5.973-128-65.28 23.040-36.267 161.28-176.64 191.573-186.027 48.64-14.507 107.52 8.107 98.56 59.733z" />
<glyph unicode="&#xe91a;" glyph-name="category_1239" d="M973.227 713.387c0 47.36-270.507 170.667-307.2 194.56-7.68 4.693-30.293 19.627-484.693-61.013-8.644-2.529-14.851-10.385-14.851-19.691 0-11.311 9.169-20.48 20.48-20.48 0.572 0 1.138 0.023 1.698 0.069l-0.073-0.005c125.29 26.353 281.549 49.426 440.266 64.010l17.121 1.27c25.173-14.933 183.893-94.293 256-142.080-230.4-32-549.973-75.52-572.16-75.52-62.367 37.805-116.357 80.121-164.761 128.067l0.068-0.067c-3.754 4.066-9.112 6.603-15.062 6.603-11.311 0-20.48-9.169-20.48-20.48 0-6.696 3.214-12.642 8.183-16.378l0.053-0.038c51.046-48.831 107.448-92.888 167.988-130.972l4.386-2.575c2.987-58.453-2.56-364.373-7.68-576.427-162.56 151.467-209.067 201.813-217.6 216.32v469.333c0.043 0.511 0.068 1.106 0.068 1.707 0 11.82-9.582 21.401-21.401 21.401-11.219 0-20.422-8.633-21.328-19.618l-0.005-0.077v-436.053c0-62.72-31.147-39.68 237.653-289.707 23.893-22.187 19.627-23.467 46.507-23.467 122.027 0 629.76 94.72 634.027 97.28 37.12 19.2 12.8 432.64 12.8 634.027zM936.107 116.053c-70.827-14.933-488.107-83.2-594.773-94.72 9.813 402.773 9.813 542.293 7.68 592.213 98.56 10.24 472.747 61.867 581.973 77.227 3.413-72.107 14.080-502.613 5.12-574.72zM486.4 171.52c0-11.782 9.551-21.333 21.333-21.333s21.333 9.551 21.333 21.333v0c0 29.013 2.987 78.507 8.96 130.987l221.013 42.667c18.876-41.954 32.3-90.616 37.787-141.654l0.186-2.132c0.804-11.151 10.048-19.892 21.333-19.892 11.811 0 21.386 9.575 21.386 21.386 0 0.525-0.019 1.047-0.056 1.563l0.004-0.069c-24.747 283.733-344.747 614.827-353.28-32.853zM542.293 345.173c3.85 56.81 22.757 108.537 52.72 152.065l-0.667-1.025c4.723 5.499 11.685 8.961 19.455 8.961 0.060 0 0.121 0 0.181-0.001h-0.009c45.653 0 91.307-54.187 125.44-120.32z" />
<glyph unicode="&#xe91b;" glyph-name="category_2002" d="M970.667 342.613c-35.413 11.093-7.68-62.72-146.347-159.573-53.76-2.987-119.467 62.72-106.24 158.72 48.64 3.84 70.827 0 85.333 24.32 4.091 7.744 6.492 16.927 6.492 26.67 0 11.826-3.538 22.826-9.613 31.999l0.134-0.215c-15.36 26.88-72.96 89.6-272.64 89.6-234.24 0-128-95.147-156.16 78.507 12.373 2.987 30.72 48.213 174.080 48.213 73.297-0.364 142.396-17.977 203.558-48.981l-2.598 1.195c2.339-1.312 5.132-2.085 8.107-2.085 9.281 0 16.805 7.524 16.805 16.805 0 6.307-3.474 11.802-8.613 14.676l-0.085 0.044c-122.88 66.987-327.253 67.413-397.227 6.827-18.347 78.507-54.613 181.333-130.987 208.64-40.107 13.653-128-3.84-107.093-35.413 16.64-24.747 40.107 23.467 96 3.84 93.44-32.853 153.173-287.147 99.413-344.32-6.4-6.827-17.067-11.947-19.627-2.987-8.96 31.573-68.693 174.080-117.333 287.573-2.575 6.064-8.48 10.24-15.36 10.24-9.19 0-16.64-7.45-16.64-16.64 0-2.31 0.471-4.51 1.321-6.509l-0.041 0.109c133.547-317.44 114.773-298.667 136.96-311.040-12.947-21.699-20.601-47.857-20.601-75.802 0-12.777 1.6-25.18 4.611-37.021l-0.223 1.036c5.12-16.64 0-13.653 17.92-11.947s-12.373-120.747-61.867-149.76c-61.663 29.279-114.808 63.447-162.965 103.415l1.259-1.015c-2.832 2.303-6.482 3.697-10.458 3.697-9.19 0-16.64-7.45-16.64-16.64 0-4.614 1.878-8.789 4.91-11.803l0.001-0.001c122.736-106.906 284.262-172.081 461.011-172.081 15.688 0 31.256 0.513 46.688 1.524l-2.099-0.11c326.4 32.427 470.187 270.080 416.853 286.293zM772.267 407.893c7.68-12.8 8.107-30.293-6.4-30.293-40.533 2.133-429.227-38.4-460.373-42.667-25.6 202.667 414.72 164.267 466.773 72.96zM266.24 135.253c39.221 44.182 63.177 102.684 63.177 166.781 0 1.366-0.011 2.73-0.033 4.090l0.003-0.205c74.667 7.68 248.747 25.173 354.987 34.133-1.358-8.089-2.135-17.409-2.135-26.91 0-68.578 40.448-127.709 98.789-154.838l1.052-0.439c-81.477-44.392-178.446-70.495-281.511-70.495-84.664 0-165.213 17.614-238.184 49.377l3.856-1.495z" />
<glyph unicode="&#xe91c;" glyph-name="category_5181" d="M692.053 769.28h-40.533c0 66.56 11.947 148.053-54.187 148.053h-170.667c-0.228 0.004-0.497 0.006-0.767 0.006-27.334 0-49.493-22.159-49.493-49.493 0-5.022 0.748-9.869 2.139-14.437l-0.092 0.351v-85.333h-23.040c-11.075 0-20.053-8.978-20.053-20.053s8.978-20.053 20.053-20.053h336.213c0.656 0.023 1.427 0.035 2.2 0.035 37.703 0 68.267-30.564 68.267-68.267 0-1.063-0.024-2.12-0.072-3.171l0.005 0.149c0-567.467 7.253-541.44-19.2-568.747s-42.667-19.627-409.6-19.627c-98.987 0-68.267 57.6-70.827 587.093 0 11.075-8.978 20.053-20.053 20.053s-20.053-8.978-20.053-20.053v0c2.56-535.467-13.653-554.667 34.987-600.32 18.322-15.991 42.299-25.918 68.582-26.452l0.111-0.002c3.609-28.658 27.828-50.602 57.173-50.602s53.565 21.944 57.144 50.318l0.029 0.284h147.627c3.609-28.658 27.828-50.602 57.173-50.602s53.565 21.944 57.144 50.318l0.029 0.284c55.68 2.294 99.95 47.989 99.95 104.024 0 1.68-0.040 3.351-0.118 5.011l0.009-0.235v520.107c0.044 1.155 0.070 2.51 0.070 3.872 0 59.382-48.138 107.52-107.52 107.52-0.925 0-1.847-0.012-2.766-0.035l0.136 0.003zM426.667 877.227c180.907 0 183.040 8.533 183.040-24.32v-85.333h-191.147c0 114.773-3.84 109.653 8.107 109.653zM665.173 130.133c0 359.68 8.533 367.36-20.053 367.36s-20.053-9.813-20.053-367.36c0-11.075 8.978-20.053 20.053-20.053s20.053 8.978 20.053 20.053v0zM527.787 130.133c0 359.68 8.533 367.36-20.053 367.36s-20.053-9.813-20.053-367.36c0-11.075 8.978-20.053 20.053-20.053s20.053 8.978 20.053 20.053v0zM403.2 130.133c0 359.68 8.533 367.36-20.053 367.36s-20.053-9.813-20.053-367.36c0-11.075 8.978-20.053 20.053-20.053s20.053 8.978 20.053 20.053v0z" />
<glyph unicode="&#xe91d;" glyph-name="category_6346" d="M877.227 470.187v136.107c0 118.613-68.267 213.333-151.893 213.333h-447.573c-81.493 2.133-149.76-87.893-149.76-203.52v-51.2c1.383-8.64 8.783-15.163 17.707-15.163s16.324 6.523 17.693 15.061l0.014 0.102v50.347c2.987 94.72 55.467 170.667 116.48 170.667h445.44c64.427 0 116.48-81.067 116.48-180.48v-120.747h-31.147v31.573c0 47.128-38.205 85.333-85.333 85.333v0h-85.333c-47.128 0-85.333-38.205-85.333-85.333v0-31.147h-85.333v31.147c0 47.128-38.205 85.333-85.333 85.333v0h-85.333c-47.128 0-85.333-38.205-85.333-85.333v0c0-36.267 0-31.573-3.84-31.573-89.82-8.857-159.413-84.007-159.413-175.411 0-92.759 71.672-168.778 162.658-175.7l0.595-0.036v-42.667c0-9.661 7.832-17.493 17.493-17.493s17.493 7.832 17.493 17.493v0 42.667h528.213c0-24.32-6.827-58.453 17.92-58.453s17.493 20.053 17.493 59.307c93.379 4.911 167.234 81.823 167.234 175.984 0 70.369-41.248 131.104-100.884 159.346l-1.070 0.456zM727.467 566.187c27.099 0 49.067-21.968 49.067-49.067v-31.147h-184.32c0 90.027 20.48 80.213 135.253 80.213zM384 566.187c27.002-0.239 48.827-22.065 49.067-49.044v-31.17h-185.6c0 90.027 20.907 80.213 136.533 80.213zM805.973 168.107h-586.667c-185.6 0-187.733 279.893-2.133 279.893h590.080c185.6 0 183.040-279.893-2.133-279.893z" />
<glyph unicode="&#xe91e;" glyph-name="category_6347" d="M600.747 547.84c8.64 1.383 15.163 8.783 15.163 17.707s-6.523 16.324-15.061 17.693l-0.102 0.014c-0.829 0.136-1.784 0.213-2.757 0.213-9.897 0-17.92-8.023-17.92-17.92s8.023-17.92 17.92-17.92c0.973 0 1.928 0.078 2.859 0.227l-0.102-0.014zM337.493 549.973c9.897 0 17.92 8.023 17.92 17.92s-8.023 17.92-17.92 17.92v0c-106.24 0-132.693 6.827-132.693-17.92s13.227-17.92 132.693-17.92zM875.093 547.84c8.64 1.383 15.163 8.783 15.163 17.707s-6.523 16.324-15.061 17.693l-0.102 0.014c-0.829 0.136-1.784 0.213-2.757 0.213-9.897 0-17.92-8.023-17.92-17.92s8.023-17.92 17.92-17.92c0.973 0 1.928 0.078 2.859 0.227l-0.102-0.014zM879.787 421.547c-291.413 0-301.653 7.253-301.653-17.92 0-222.293-5.973-226.133 17.92-226.133h221.013c43.796 0.956 78.933 36.686 78.933 80.622 0 0.006 0 0.013 0 0.019v-0.001c0 147.2 8.107 163.413-16.213 163.413zM861.867 258.133c0.036-0.654 0.056-1.419 0.056-2.19 0-23.564-19.103-42.667-42.667-42.667-0.77 0-1.536 0.020-2.296 0.061l0.106-0.004h-203.093v170.667h247.893zM737.707 547.84c8.64 1.383 15.163 8.783 15.163 17.707s-6.523 16.324-15.061 17.693l-0.102 0.014c-0.829 0.136-1.784 0.213-2.757 0.213-9.897 0-17.92-8.023-17.92-17.92s8.023-17.92 17.92-17.92c0.973 0 1.928 0.078 2.859 0.227l-0.102-0.014zM882.347 666.453h-640v101.547c0 31.34 25.406 56.747 56.747 56.747s56.747-25.406 56.747-56.747v0c0-9.897 8.023-17.92 17.92-17.92s17.92 8.023 17.92 17.92v0c0 51.134-41.452 92.587-92.587 92.587s-92.587-41.452-92.587-92.587v0-101.547h-64c-0.184 0.001-0.401 0.002-0.618 0.002-55.14 0-99.84-44.7-99.84-99.84 0-3.909 0.225-7.766 0.662-11.558l-0.043 0.463c-0.136-0.829-0.213-1.784-0.213-2.757 0-9.897 8.023-17.92 17.92-17.92s17.92 8.023 17.92 17.92c0 0.973-0.078 1.928-0.227 2.859l0.014-0.102c0 75.093 58.027 75.52 63.573 75.52h352v-501.76h-351.147c-0.002 0-0.004 0-0.006 0-34.811 0-63.086 27.978-63.567 62.675v0.045c0 236.373 6.4 239.787-17.493 239.787s-18.773-2.133-18.773-239.787c0.114-48.545 35.154-88.872 81.318-97.19l0.602-0.090v-42.667c0-9.897 8.023-17.92 17.92-17.92s17.92 8.023 17.92 17.92v0 41.813h703.147c0-24.32-6.827-57.6 17.493-57.6s17.92 20.053 17.92 59.307c46.578 8.331 81.589 48.181 82.346 96.347l0.001 0.080v375.467c0 54.669-44.318 98.987-98.987 98.987v0zM882.347 631.040c34.927-0.242 63.147-28.611 63.147-63.572 0-0.001 0-0.001 0-0.002v0-62.293h-415.147v125.867zM882.347 129.28h-352v341.333h415.147v-278.613c-0.478-34.595-28.517-62.483-63.124-62.72h-0.023z" />
<glyph unicode="&#xe91f;" glyph-name="category_6356" d="M784.64 917.333h-545.28c-78.371-0.242-141.838-63.709-142.080-142.057v-576.876c0-10.604 8.596-19.2 19.2-19.2s19.2 8.596 19.2 19.2v0 230.4h752.64v-329.813c0-45.479-36.868-82.347-82.347-82.347v0h-587.947c-45.479 0-82.347 36.868-82.347 82.347v0c0 10.604-8.596 19.2-19.2 19.2s-19.2-8.596-19.2-19.2v0c0.243-66.503 54.209-120.32 120.746-120.32 0 0 0.001 0 0.001 0h587.947c0 0 0 0 0.001 0 66.536 0 120.503 53.817 120.746 120.297v676.29c-0.242 78.371-63.709 141.838-142.057 142.080h-0.023zM135.68 467.2v308.053c0 0 0 0.001 0 0.001 0 57.347 46.367 103.863 103.657 104.106h545.303c57.313-0.242 103.68-46.759 103.68-104.106 0 0 0-0.001 0-0.001v0-308.053zM608 783.787v-24.747h-200.96v24.747c-1.438 9.305-9.39 16.346-18.987 16.346s-17.549-7.041-18.973-16.238l-0.014-0.108v-42.667c0-0.001 0-0.003 0-0.005 0-10.454 8.355-18.956 18.751-19.195h0.022c289.28 0 258.56-19.2 258.56 62.72-0.239 10.421-8.744 18.778-19.2 18.778-10.606 0-19.205-8.598-19.205-19.205 0-0.15 0.002-0.3 0.005-0.449v0.022zM387.84 352.427c-25.173 0-18.773-30.72-18.773-62.72 0-25.6 3.413-18.773 256-18.773 25.173 0 19.2 30.72 19.2 62.293 0 10.604-8.596 19.2-19.2 19.2s-19.2-8.596-19.2-19.2v0-24.32h-198.827v24.32c0 10.604-8.596 19.2-19.2 19.2v0z" />
<glyph unicode="&#xe920;" glyph-name="category_6362" d="M208.213 299.093c-15.081 0-27.307-12.226-27.307-27.307s12.226-27.307 27.307-27.307v0c15.081 0 27.307 12.226 27.307 27.307s-12.226 27.307-27.307 27.307v0zM235.52 521.387c0 15.081-12.226 27.307-27.307 27.307s-27.307-12.226-27.307-27.307c0-15.081 12.226-27.307 27.307-27.307v0c15.081 0 27.307 12.226 27.307 27.307v0zM981.333 721.493c-0.242 39.875-32.623 72.107-72.532 72.107 0 0-0.001 0-0.001 0h-793.6c0 0-0.001 0-0.001 0-39.909 0-72.29-32.232-72.532-72.084v-9.836c0-11.782 9.551-21.333 21.333-21.333s21.333 9.551 21.333 21.333v0 9.813c0 0.001 0 0.002 0 0.003 0 16.731 13.563 30.293 30.293 30.293 0.15 0 0.3-0.001 0.449-0.003h792.724c0.127 0.002 0.277 0.003 0.427 0.003 16.731 0 30.293-13.563 30.293-30.293 0-0.001 0-0.002 0-0.003v0-30.72h-587.093c-0.128 0.003-0.28 0.005-0.431 0.005-11.075 0-20.053-8.978-20.053-20.053 0-0.152 0.002-0.303 0.005-0.454v0.022-253.013h-246.613v197.12c0.002 0.103 0.003 0.226 0.003 0.348 0 10.426-7.479 19.104-17.364 20.965l-0.132 0.021c-1.412 0.347-3.033 0.547-4.701 0.547-11.311 0-20.48-9.169-20.48-20.48 0-0.192 0.003-0.384 0.008-0.575l-0.001 0.028v-430.933c0 0 0-0.001 0-0.001 0-45.243 36.677-81.92 81.92-81.92 0.15 0 0.3 0 0.45 0.001h166.377c0 0 0.001 0 0.001 0 45.329 0 82.103 36.625 82.345 81.897v464.663h564.907v-524.373c-0.003-0.125-0.004-0.273-0.004-0.422 0-10.509 7.45-19.278 17.357-21.314l0.14-0.024c1.156-0.231 2.484-0.364 3.843-0.364 11.311 0 20.48 9.169 20.48 20.48 0 0.128-0.001 0.256-0.004 0.383v-0.019l0.853 598.187zM291.413 144.213h-166.4c-0.766-0.052-1.659-0.082-2.56-0.082-22.15 0-40.107 17.956-40.107 40.107 0 0.029 0 0.057 0 0.086v-0.004 191.147h247.467v-191.147c-1.199-21.071-17.52-37.98-38.219-40.092l-0.181-0.015z" />
<glyph unicode="&#xe921;" glyph-name="category_6392" d="M911.787 799.147h-630.613c-8.247 0-14.933-6.686-14.933-14.933s6.686-14.933 14.933-14.933h630.613c52.907 0 52.053-136.533 0-136.533h-799.573c-52.48 0-52.48 136.533 0 136.533 8.247 0 14.933 6.686 14.933 14.933s-6.686 14.933-14.933 14.933v0c-94.72 0-90.88-196.693 0-196.693h384v-474.88c-160 0-167.253 5.12-167.253-14.933s0-14.933 349.44-14.933c8.247 0 14.933 6.686 14.933 14.933s-6.686 14.933-14.933 14.933h-151.467v474.88h384c93.44 0 93.44 196.693 0.853 196.693z" />
<glyph unicode="&#xe922;" glyph-name="category_6792" d="M832.853 362.667c-1.026 0.198-2.207 0.311-3.413 0.311-10.422 0-18.871-8.449-18.871-18.871 0-9.216 6.606-16.888 15.34-18.542l0.118-0.018c43.371-3.564 82.921-17.227 117.15-38.612l-1.097 0.639c-14.080-38.4-244.48-58.453-301.653-61.44 175.787 111.787 114.773 363.947 67.84 418.133s-44.8-8.533-68.267-71.68c-3.424-8.105-11.308-13.69-20.495-13.69-11.966 0-21.719 9.473-22.17 21.329l-0.001 0.041c-1.336 98.082-27.924 189.673-73.534 268.931l1.428-2.691c-27.307 50.347-208.213-170.667-158.293-397.227 0.669-2.040 1.055-4.388 1.055-6.827 0-12.489-10.124-22.613-22.613-22.613-7.145 0-13.516 3.314-17.66 8.488l-0.035 0.045c-14.891 21.716-29.119 46.623-41.296 72.682l-1.37 3.265c-2.986 6.65-9.55 11.197-17.177 11.197-9.653 0-17.605-7.286-18.656-16.659l-0.008-0.085c-4.693-33.28-8.533-144.213 37.12-210.773 17.57-24.423 39.811-44.347 65.545-58.784l1.015-0.523c-46.080 2.987-256 22.613-269.653 58.453 5.973 7.253 36.267 25.6 128 42.667 9.019 1.491 15.812 9.232 15.812 18.56 0 10.382-8.416 18.799-18.799 18.799-1.055 0-2.089-0.087-3.096-0.254l0.109 0.015c-145.92-25.6-162.56-58.027-162.56-80.64 0-29.867 54.613-98.56 91.307-128 3.46-3.394 8.206-5.488 13.44-5.488s9.98 2.095 13.443 5.491l-0.003-0.003c17.067 20.053-10.667 28.587-42.667 68.267 170.667-55.040 616.107-55.040 787.627 0-112.213-140.373-347.733-165.12-521.813-136.533-0.898 0.152-1.932 0.239-2.987 0.239-10.382 0-18.799-8.416-18.799-18.799 0-9.328 6.794-17.069 15.703-18.545l0.109-0.015c215.893-35.413 512 11.52 597.333 213.333 34.133 57.6-79.36 85.333-142.507 96.427zM315.733 309.76c-19.467 33.058-31.374 72.631-32.421 114.9l-0.006 0.3 11.947-18.347c11.156-15.022 28.843-24.65 48.778-24.65 33.461 0 60.587 27.126 60.587 60.587 0 5.27-0.673 10.383-1.937 15.258l0.093-0.421c-5.101 23.565-8.023 50.637-8.023 78.391 0 104.326 41.282 199.009 108.402 268.606l-0.112-0.117c92.587-189.867 17.493-268.373 104.533-283.307 57.173-11.093 70.4 42.667 81.493 85.333 19.206-42.116 30.401-91.347 30.401-143.192 0-35.809-5.341-70.371-15.269-102.932l0.655 2.497c-64.853-182.613-314.027-162.56-389.12-52.907z" />
<glyph unicode="&#xe923;" glyph-name="category_500000" d="M946.347 25.6c0 10.667-4.693 12.373-45.653 52.907 74.649 49.93 123.176 133.844 123.307 229.1v61.46c0.002 0.254 0.003 0.553 0.003 0.853 0 66.687-54.060 120.747-120.747 120.747-0.001 0-0.002 0-0.003 0v0c-6.827 0-4.267-17.067-4.267 381.013-0.239 9.712-8.168 17.493-17.915 17.493-0.002 0-0.004 0-0.005 0h-215.893c-0.002 0-0.003 0-0.005 0-9.661 0-17.493-7.832-17.493-17.493 0-0.15 0.002-0.3 0.006-0.449v0.022-103.68h-65.28c-8.862-1.401-15.557-8.985-15.557-18.133s6.695-16.732 15.453-18.12l0.104-0.014h166.827c8.862 1.401 15.557 8.985 15.557 18.133s-6.695 16.732-15.453 18.12l-0.104 0.014h-66.56c0.668 11.98 1.048 25.999 1.048 40.107s-0.38 28.126-1.131 42.046l0.083-1.939c0 6.4-8.107 4.267 174.933 4.267 6.827 0 4.267 17.493 4.267-357.973 0-6.827 28.587-4.267-535.467-4.267-8.862-1.401-15.557-8.985-15.557-18.133s6.695-16.732 15.453-18.12l0.104-0.014h578.133c44.485-1.066 80.474-36.016 83.188-79.971l0.012-0.242c0-5.12 42.667-3.413-530.347-3.413-8.862-1.401-15.557-8.985-15.557-18.133s6.695-16.732 15.453-18.12l0.104-0.014c558.507 0 530.347 2.56 530.347-4.267v-20.48c0 0 0 0 0 0 0-132.28-107.113-239.543-239.336-239.786h-472.771c-132.247 0.243-239.36 107.506-239.36 239.786v0 61.013c0 0.008 0 0.017 0 0.027 0 46.378 36.999 84.115 83.090 85.304l0.11 0.002c8.862 1.401 15.557 8.985 15.557 18.133s-6.695 16.732-15.453 18.12l-0.104 0.014c-66.037-0.236-119.479-53.823-119.479-119.893 0-0.6 0.004-1.2 0.013-1.798l-0.001 0.091v-62.293c0.185-103.563 57.635-193.665 142.367-240.35l1.419-0.717c-30.72-30.72-33.707-31.573-33.707-42.667-0.001-0.077-0.002-0.169-0.002-0.261 0-9.897 8.023-17.92 17.92-17.92 5.014 0 9.547 2.059 12.799 5.378l37.976 37.976c62.72-23.467 46.080-17.493 570.453-17.493 85.333 0 113.92 31.573 120.747 24.747l45.653-45.227c3.266-3.396 7.848-5.505 12.922-5.505 9.897 0 17.92 8.023 17.92 17.92 0 0.737-0.044 1.464-0.131 2.177l0.008-0.086zM709.12 695.467c-9.897 0-17.92-8.023-17.92-17.92s8.023-17.92 17.92-17.92v0c9.897 0 17.92 8.023 17.92 17.92s-8.023 17.92-17.92 17.92v0zM666.88 637.44c-9.897 0-17.92-8.023-17.92-17.92s8.023-17.92 17.92-17.92v0c9.897 0 17.92 8.023 17.92 17.92s-8.023 17.92-17.92 17.92v0zM637.013 695.467c-9.897 0-17.92-8.023-17.92-17.92s8.023-17.92 17.92-17.92v0c9.897 0 17.92 8.023 17.92 17.92s-8.023 17.92-17.92 17.92v0zM604.16 612.693c-9.897 0-17.92-8.023-17.92-17.92s8.023-17.92 17.92-17.92v0c9.897 0 17.92 8.023 17.92 17.92s-8.023 17.92-17.92 17.92v0zM714.24 608.427c-9.897 0-17.92-8.023-17.92-17.92s8.023-17.92 17.92-17.92v0c9.897 0 17.92 8.023 17.92 17.92s-8.023 17.92-17.92 17.92v0z" />
<glyph unicode="&#xe924;" glyph-name="category_999999" d="M962.56 351.573c-2.040 56.379-24.377 107.177-59.875 145.648l0.141-0.155c-2.387 1.795-5.401 2.874-8.668 2.874-8.012 0-14.507-6.495-14.507-14.507 0-3.159 1.010-6.082 2.724-8.464l-0.030 0.043c30.277-33.165 49.508-76.871 51.612-125.023l0.014-0.417c0-85.333-103.253-133.973-197.547-162.133-3.794-0.141-7.306-1.233-10.34-3.042l0.1 0.055-7.68-2.56c-120.513-31.264-226.283-78.851-321.534-141.18l4.094 2.514-10.24-5.973c-29.884-19.799-66.575-31.589-106.019-31.589-25.738 0-50.304 5.020-72.772 14.134l1.298-0.465c-59.882 30.585-103.265 86.172-116.67 152.619l-0.237 1.407c-24.32 119.040 34.987 337.493 187.307 423.253 64.82 35.962 142.144 57.129 224.413 57.129 34.458 0 68.049-3.713 100.394-10.762l-3.1 0.567c1.172-0.352 2.518-0.554 3.912-0.554 6.455 0 11.896 4.344 13.558 10.268l0.024 0.099c0.333 1.142 0.525 2.453 0.525 3.809 0 6.6-4.541 12.139-10.668 13.664l-0.097 0.020c-31.724 7.33-68.153 11.531-105.563 11.531-86.5 0-167.753-22.461-238.247-61.869l2.476 1.271c-170.667-96-226.56-329.387-201.387-454.4 15.821-76.779 65.161-139.581 131.702-173.426l1.418-0.654c23.814-11.045 51.687-17.49 81.066-17.493h0.001c45.842 1.096 88.386 14.28 124.846 36.469l-1.113-0.629 7.253 7.68c86.455 56.377 186.527 101.933 293.289 131.355l7.511 1.765v-42.667c-0.136-1.213-0.213-2.618-0.213-4.042 0-21.208 17.192-38.4 38.4-38.4s38.4 17.192 38.4 38.4c0 1.424-0.077 2.83-0.228 4.213l0.015-0.171v66.56c111.36 42.667 170.24 101.547 170.24 173.227zM601.173 513.707c0-31.576-25.597-57.173-57.173-57.173s-57.173 25.597-57.173 57.173c0 31.576 25.597 57.173 57.173 57.173s57.173-25.597 57.173-57.173zM770.133 738.56c0.256-0.004 0.558-0.007 0.86-0.007 31.105 0 56.32 25.215 56.32 56.32 0 0.302-0.002 0.604-0.007 0.905l0.001-0.046c-8.011 52.030-38.545 95.628-81.145 121.169l-0.775 0.431c-4.693-8.533 0-42.667-6.827-61.44s-25.6-36.693-25.6-60.16c2.669-30.442 26.731-54.504 56.936-57.157l0.237-0.017zM410.453 437.333c0-31.576-25.597-57.173-57.173-57.173s-57.173 25.597-57.173 57.173c0 31.576 25.597 57.173 57.173 57.173s57.173-25.597 57.173-57.173zM296.107 246.613c0-31.576-25.597-57.173-57.173-57.173s-57.173 25.597-57.173 57.173c0 31.576 25.597 57.173 57.173 57.173s57.173-25.597 57.173-57.173zM715.947 642.987v-306.773c2.113-19.397 18.403-34.358 38.187-34.358s36.073 14.961 38.172 34.187l0.015 0.171v306.773c0.136 1.213 0.213 2.618 0.213 4.042 0 21.208-17.192 38.4-38.4 38.4s-38.4-17.192-38.4-38.4c0-1.424 0.077-2.83 0.228-4.213l-0.015 0.171z" />
<glyph unicode="&#xe925;" glyph-name="chat" d="M223.573 24.32c-21.119 0.196-41.694 1.585-61.917 4.105l2.611-0.265c-9.873 1.796-17.261 10.328-17.261 20.586 0 8.855 5.505 16.423 13.278 19.471l0.142 0.049c14.507 5.547 42.667 22.613 45.227 42.667-5.626 19.855-16.845 36.602-31.833 48.933l-0.167 0.134c-4.693 3.413-17.493 18.347-5.973 31.573 26.453 30.293 79.787-45.227 79.36-81.493-0.72-16.509-7.234-31.37-17.543-42.723l0.050 0.056c0.783-0.013 1.706-0.020 2.631-0.020 12.057 0 23.822 1.25 35.172 3.628l-1.11-0.195c40.107 7.68 60.16 37.547 82.773 29.44 280.747-104.96 589.653 79.787 589.653 347.733 0 213.333-190.72 384-426.667 384-288 0-493.227-250.027-408.747-493.653 0.641-1.939 1.011-4.171 1.011-6.49 0-9.079-5.672-16.834-13.665-19.914l-0.146-0.049c-1.939-0.641-4.171-1.011-6.49-1.011-9.079 0-16.834 5.672-19.914 13.665l-0.049 0.146c-93.44 270.080 130.987 546.987 448 546.987 258.987 0 469.333-189.013 469.333-421.547 0-298.667-334.080-500.907-640-392.533-29.94-21.008-67.138-33.573-107.27-33.573-3.69 0-7.355 0.106-10.993 0.316l0.503-0.023zM731.307 499.627h-438.187c-11.782 0-21.333 9.551-21.333 21.333s9.551 21.333 21.333 21.333v0h438.187c11.782 0 21.333-9.551 21.333-21.333s-9.551-21.333-21.333-21.333v0zM731.307 354.987h-438.187c-11.782 0-21.333 9.551-21.333 21.333s9.551 21.333 21.333 21.333v0h438.187c11.782 0 21.333-9.551 21.333-21.333s-9.551-21.333-21.333-21.333v0z" />
<glyph unicode="&#xe926;" glyph-name="checkmark" d="M975.787 863.147c-51.2-111.787-426.667-525.653-542.72-800-10.24-23.893-12.8-62.293-44.8-65.28-1.405-0.164-3.033-0.258-4.683-0.258-11.849 0-22.569 4.83-30.301 12.628l-0.003 0.003c-128.086 116.396-230.42 258.673-299.085 418.812l-2.995 7.854c-9.813 26.027-16.64 50.347 11.093 49.493 114.347-4.267 237.227-197.973 269.653-162.133 553.387 608.427 680.107 618.667 643.84 538.88z" />
<glyph unicode="&#xe927;" glyph-name="info" d="M465.067 682.667h93.867v-93.867h-93.867zM465.067 494.933h93.867v-281.6h-93.867zM512 917.333c-259.206 0-469.333-210.128-469.333-469.333s210.128-469.333 469.333-469.333c259.206 0 469.333 210.128 469.333 469.333v0c0 259.206-210.128 469.333-469.333 469.333v0zM512 72.533c-207.365 0-375.467 168.102-375.467 375.467s168.102 375.467 375.467 375.467c207.365 0 375.467-168.102 375.467-375.467v0c-0.243-207.267-168.2-375.224-375.443-375.467h-0.023z" />
<glyph unicode="&#xe928;" glyph-name="favorite_border" d="M516.267 2.56c-21.020 2.547-39.878 10.163-55.83 21.581l0.364-0.247c-140.373 82.773-448.427 350.293-450.133 619.52-0.108 2.705-0.169 5.88-0.169 9.070 0 96.15 55.895 179.245 136.965 218.564l1.445 0.632c107.093 45.653 235.093 16.64 359.68-85.76l5.973 3.413c63.080 62.694 150.019 101.444 246.008 101.444 28.368 0 55.945-3.384 82.349-9.771l-2.384 0.487c90.927-19.363 159.887-93.955 170.572-186.304l0.094-1.003c26.453-213.333-192-526.080-477.013-686.933-4.872-2.955-10.761-4.704-17.059-4.704-0.303 0-0.605 0.004-0.906 0.012l0.044-0.001zM74.667 643.413c0-265.813 365.227-544.853 437.76-574.72 256 148.053 458.24 434.347 435.2 617.387-7.284 67.39-57.711 121.148-122.79 133.399l-0.943 0.148c-131.413 35.84-220.587-38.4-268.8-78.080-23.467-19.627-47.36-39.68-71.68-18.347-109.227 96.853-221.44 128-308.053 90.453-60.253-30.2-100.889-91.479-100.889-162.248 0-2.961 0.071-5.905 0.212-8.831l-0.016 0.413z" />
<glyph unicode="&#xe929;" glyph-name="cs_mail" d="M896 124.16h-768c-0.008 0-0.017 0-0.027 0-46.378 0-84.115 36.999-85.304 83.090l-0.002 0.11c0 317.867-6.4 325.973 19.2 325.973s17.92-8.107 17.92-325.973c0-0.002 0-0.005 0-0.008 0-26.156 21.204-47.36 47.36-47.36 0.3 0 0.599 0.003 0.898 0.008l-0.045-0.001h768c0.001 0 0.001 0 0.002 0 26.242 0 47.543 21.152 47.785 47.337v481.303c0 28.587 29.013 49.92-394.24-392.96-15.308-14.712-36.143-23.772-59.093-23.772s-43.785 9.060-59.122 23.799l0.028-0.027-351.147 333.653c-13.699 15.081-22.086 35.204-22.086 57.285 0 45.592 35.755 82.833 80.754 85.213l0.212 0.009h756.907c47.128 0 85.333-38.205 85.333-85.333v0-479.147c-1.192-46.201-38.928-83.2-85.307-83.2-0.009 0-0.019 0-0.028 0h0.001zM139.093 736c-0.131 0.001-0.285 0.002-0.44 0.002-26.156 0-47.36-21.204-47.36-47.36 0-13.188 5.39-25.117 14.088-33.704l0.005-0.005 352.427-334.933c8.707-8.623 20.692-13.95 33.92-13.95s25.213 5.328 33.924 13.954l-0.004-0.004c421.547 442.027 407.467 416 370.347 416z" />
<glyph unicode="&#xe92a;" glyph-name="cs_newsletter" d="M725.333 564.053l-25.6-28.587c140.8-124.16 114.773-99.84 122.453-107.947l-200.533-161.28c-78.507 61.867-85.333 61.44-91.307 61.013-16.64-2.133-87.467-66.987-91.307-63.573-223.573 179.627-208.213 158.72-185.6 170.667 48.64 37.12 66.56 42.667 52.053 63.573s-30.72 0-72.533-31.147c-25.691-15.028-42.675-42.483-42.675-73.906 0-0.418 0.003-0.835 0.009-1.251l-0.001 0.063c7.68-277.76-31.573-364.373 69.12-366.507h541.44c2.949-0.469 6.35-0.737 9.813-0.737 36.248 0 65.64 29.352 65.707 65.584v0.006c-2.987 395.093 33.707 309.333-151.040 474.027zM837.547 390.4v-298.667c-29.268 25.019-89.384 74.312-149.812 123.233l-34.935 27.38zM227.84 91.733v291.413l181.333-145.92c-45.227-32.427-103.253-79.36-183.467-144.213zM255.147 64.853c66.587 55.067 156.981 127.051 248.356 197.829l29.404 21.904c36.693-25.6 180.053-142.080 275.2-220.16l-555.093-0.427zM585.387 614.4c36.267-28.16 36.267-30.72 45.227-30.72 10.552 0.069 19.079 8.638 19.079 19.2 0 6.016-2.767 11.385-7.097 14.906l-0.035 0.028c-23.893 19.2-44.8 42.667-60.587 23.467-2.493-3.207-3.997-7.291-3.997-11.726 0-6.14 2.883-11.608 7.368-15.122l0.042-0.032zM503.893 661.333c-16.64 23.893-42.667-3.84-142.933-85.333-3.652-3.501-5.921-8.419-5.921-13.867 0-10.604 8.596-19.2 19.2-19.2 3.954 0 7.629 1.195 10.683 3.244l-0.069-0.044c116.907 94.72 134.4 96 119.040 115.2zM625.493 391.68c26.88 108.373 106.667 325.973 177.067 308.907 90.88-22.187 55.893-102.4 34.56-111.787-5.024-1.921-10.836-3.033-16.907-3.033-11.57 0-22.196 4.040-30.545 10.785l0.092-0.072c-13.227 14.080 17.493 33.28-8.96 46.080s-48.213-42.667-18.773-72.533c15.237-14.37 35.833-23.201 58.493-23.201 11.842 0 23.121 2.412 33.372 6.772l-0.558-0.211c59.733 25.6 82.773 154.453-40.533 184.32s-213.333-298.667-223.147-337.067c0.335-10.342 8.798-18.598 19.191-18.598 7.085 0 13.273 3.837 16.6 9.546l0.049 0.091zM189.013 588.373c25.173 34.133 0 85.333-27.307 69.547s7.68-31.573-3.413-46.933c-8.679-8.842-20.756-14.323-34.113-14.323-4.253 0-8.376 0.556-12.3 1.598l0.334-0.075c-22.187 6.4-67.413 81.493 20.907 114.773 64 23.893 198.827-210.773 274.347-384 2.579-7.765 9.777-13.267 18.26-13.267 10.604 0 19.2 8.596 19.2 19.2 0 3.465-0.918 6.715-2.523 9.521l0.050-0.094c-32.853 74.667-203.093 449.28-322.56 402.347s-79.36-170.667-18.347-187.733c6.254-1.641 13.435-2.583 20.835-2.583 26.883 0 50.862 12.431 66.503 31.858l0.128 0.165zM426.667 710.827c39.253-15.36 82.347 14.933 63.573 37.547s-29.013-9.813-49.493 0-39.68 49.92-14.080 69.547c42.667 32.853 96 4.693 123.307-42.667 18.347-30.72-24.32-151.040-60.587-226.56-1.185-2.435-1.878-5.296-1.878-8.32 0-10.698 8.673-19.371 19.371-19.371 7.675 0 14.307 4.463 17.443 10.936l0.050 0.115c15.787 33.28 93.867 203.093 58.453 262.827-70.827 122.453-219.307 79.787-206.507-14.933 4.108-30.703 23.328-56.145 49.812-68.888l0.535-0.232zM526.933 379.307c21.333 11.52 6.827 27.733-26.027 88.747-3.462 3.404-8.214 5.505-13.457 5.505-10.604 0-19.2-8.596-19.2-19.2 0-2.279 0.397-4.464 1.125-6.492l-0.042 0.134c28.16-54.187 35.413-80.64 57.6-68.693zM661.333 720.64c21.76 37.973 35.84 54.187 15.787 66.133s-27.733-10.24-49.067-46.933c-1.616-2.754-2.571-6.066-2.571-9.6 0-10.61 8.601-19.211 19.211-19.211 7.075 0 13.257 3.825 16.591 9.52l0.049 0.091zM369.92 634.88c20.907 10.24 6.827 29.867-8.107 59.733-3.378 5.794-9.563 9.626-16.643 9.626-10.604 0-19.2-8.596-19.2-19.2 0-2.87 0.63-5.593 1.759-8.038l-0.049 0.119c10.667-21.76 19.627-53.76 42.24-42.24zM958.293 526.933c-57.173-10.667-78.933-10.24-74.667-33.707 1.733-8.968 9.521-15.649 18.869-15.649 1.172 0 2.32 0.105 3.435 0.306l-0.117-0.018c57.173 10.667 79.36 10.24 75.093 33.707-2.104 8.997-10.057 15.595-19.551 15.595-1.081 0-2.142-0.085-3.176-0.25l0.114 0.015zM165.547 509.44c-22.187 7.253-52.907 23.040-60.16 0s16.64-25.173 48.64-34.987c3.049-2.13 6.833-3.404 10.914-3.404 10.604 0 19.2 8.596 19.2 19.2 0 10.391-8.254 18.854-18.563 19.19l-0.031 0.001z" />
<glyph unicode="&#xe92b;" glyph-name="cs_phone" d="M366.507 134.4c-102.4 100.267-238.507 276.907-289.707 432.213-65.707 204.373 63.147 363.947 206.933 350.72 89.767-15.371 157.227-92.607 157.227-185.6 0-64.498-32.452-121.416-81.918-155.318l-0.642-0.416c-82.773-85.333 61.013-209.493 153.6-289.28 42.667-38.4 49.92-61.867 139.093 22.187 101.547 95.147 361.387 50.347 308.053-221.867-2.498-9.466-10.983-16.332-21.072-16.332-12.018 0-21.76 9.742-21.76 21.76 0 0.944 0.060 1.875 0.177 2.787l-0.011-0.108c7.253 37.973 14.507 144.213-38.4 179.2-71.68 47.787-146.773 48.64-196.267 2.56-110.080-103.253-140.8-74.24-198.4-23.467s-153.6 133.547-182.187 207.36c-7.583 16.103-12.009 34.975-12.009 54.882 0 38.147 16.254 72.498 42.215 96.505l0.087 0.080c38.1 26.339 62.744 69.79 62.744 118.997 0 69.385-49 127.324-114.283 141.103l-0.941 0.166c-108.373 11.093-216.32-118.187-160-292.267 47.36-148.053 179.627-316.16 278.613-414.72 74.667-74.667 182.613-149.76 413.013-144.213 26.453 3.84 32.427-42.667 0-42.667-217.173-6.827-341.333 53.76-444.16 155.733z" />
<glyph unicode="&#xe92c;" glyph-name="wifi_off" d="M981.333 529.067c-119.971 119.892-285.667 194.042-468.682 194.042-47.971 0-94.753-5.094-139.833-14.772l4.355 0.783 107.52-107.52c8.671 0.498 18.814 0.782 29.024 0.782 149.424 0 284.643-60.817 382.255-159.047l0.028-0.028zM810.667 358.4c-51.444 51.492-116.19 89.686-188.641 108.989l-2.932 0.664 148.907-151.467zM85.333 782.933l130.987-130.133c-66.944-33.052-124.267-74.428-173.662-123.742l0.009 0.009 85.333-85.333c49.659 50.16 109.288 90.344 175.683 117.348l3.517 1.265 95.573-95.573c-74.543-19.955-138.545-57.827-189.435-108.795l-0.005-0.005 85.333-85.333c53.701 53.909 127.852 87.414 209.829 87.893h0.091l302.080-301.227 54.187 53.76-725.333 725.333zM384 185.6l128-128 128 128c-32.793 32.683-78.036 52.89-128 52.89s-95.207-20.207-128.005-52.894l0.005 0.005z" />
<glyph unicode="&#xe92d;" glyph-name="star" d="M512 177.067l290.133-174.933-76.8 329.813 256 222.293-337.493 28.587-131.84 311.040-131.84-311.040-337.493-28.587 256-222.293-76.8-329.813z" />
<glyph unicode="&#xe92e;" glyph-name="delivery_usp" d="M840.96 808.96c-20.053 23.040 14.507 16.213-661.333 16.213-25.972-0.241-46.933-21.352-46.933-47.358 0-0.001 0-0.001 0-0.002v0-46.507l-60.16-4.693c-16.735-3.239-29.2-17.774-29.2-35.22 0-18.356 13.8-33.49 31.592-35.591l0.169-0.016 341.333-30.72c0-24.747-46.507-35.84-54.187-36.267-279.893-20.907-276.48-16.213-287.147-38.4-2.347-4.669-3.722-10.176-3.722-16.003 0-18.635 14.055-33.987 32.143-36.035l0.166-0.015 276.053-24.32c-9.103-18.353-26.424-31.44-47.016-34.518l-0.344-0.042-198.827-15.787v-180.48c-0.001-0.127-0.002-0.277-0.002-0.427 0-25.921 21.013-46.933 46.933-46.933 0.001 0 0.001 0 0.002 0h19.2c14.635 73.395 77.659 128.235 153.826 130.129l0.201 0.004c76.306-2.064 139.243-56.821 153.852-129.099l0.175-1.034h100.693c13.326 74.092 77.303 129.579 154.24 129.579s140.914-55.487 154.098-128.627l0.142-0.953h13.653c24.422 0.103 44.474 18.675 46.917 42.465l0.017 0.202c33.707 352-129.28 562.347-136.533 570.453zM666.453 541.867v189.013h115.2c34.471-54.32 61.517-117.419 77.647-184.762l0.86-4.252zM352 258.56c-51.893-0.242-93.867-42.366-93.867-94.292 0-52.077 42.217-94.293 94.293-94.293s94.293 42.216 94.293 94.292v0c0.001 0.128 0.001 0.279 0.001 0.431 0 51.841-42.026 93.867-93.867 93.867-0.3 0-0.6-0.001-0.9-0.004h0.046zM761.173 258.56c-51.893-0.242-93.867-42.366-93.867-94.292 0-52.077 42.217-94.293 94.293-94.293s94.293 42.216 94.293 94.292v0c0.001 0.128 0.001 0.279 0.001 0.431 0 51.841-42.026 93.867-93.867 93.867-0.3 0-0.6-0.001-0.9-0.004h0.046z" />
<glyph unicode="&#xe92f;" glyph-name="download_order" d="M669.013 192h-314.027c-37.703 0-68.267 30.564-68.267 68.267v0 55.467c2.739 9.367 11.251 16.093 21.333 16.093s18.595-6.726 21.294-15.936l0.039-0.157v-55.467c0.235-13.336 10.984-24.085 24.298-24.32h314.049c13.336 0.235 24.085 10.984 24.32 24.298v55.489c2.739 9.367 11.251 16.093 21.333 16.093s18.595-6.726 21.294-15.936l0.039-0.157v-55.467c0-0.014 0-0.031 0-0.048 0-36.802-29.122-66.803-65.578-68.215l-0.128-0.004zM654.507 468.907l-120.32-120.32v332.8c-2.739 9.367-11.251 16.093-21.333 16.093s-18.595-6.726-21.294-15.936l-0.039-0.157v-332.8l-122.027 120.32c-4.099 5.201-10.398 8.509-17.469 8.509-12.253 0-22.187-9.933-22.187-22.187 0-7.072 3.309-13.371 8.462-17.434l0.047-0.036 133.973-133.973c10.177-10.106 24.199-16.352 39.68-16.352s29.503 6.246 39.683 16.355l133.97 133.97c5.201 4.099 8.509 10.398 8.509 17.469 0 12.253-9.933 22.187-22.187 22.187-7.072 0-13.371-3.309-17.434-8.462l-0.036-0.047zM512-21.333c-259.090 0.153-469.065 210.222-469.065 469.333 0 112.854 39.831 216.404 106.203 297.36l-0.657-0.826c4.045 4.214 9.724 6.832 16.015 6.832 12.253 0 22.187-9.933 22.187-22.187 0-4.799-1.524-9.243-4.114-12.873l0.046 0.068c-59.144-72.641-94.969-166.32-94.969-268.367 0-235.641 191.025-426.667 426.667-426.667s426.667 191.025 426.667 426.667c0 235.641-191.025 426.667-426.667 426.667-0.813 0-1.625-0.002-2.437-0.007l0.125 0.001c-122.453 0-155.733-47.36-168.533-10.24-0.841 2.225-1.327 4.797-1.327 7.483 0 9.594 6.209 17.737 14.827 20.632l0.153 0.045c44.835 15.672 96.522 24.725 150.322 24.725 259.206 0 469.333-210.128 469.333-469.333 0-257.603-207.538-466.733-464.532-469.309l-0.244-0.002z" />
<glyph unicode="&#xe930;" glyph-name="star_border" d="M981.333 554.24l-337.493 29.013-131.84 310.613-131.84-311.040-337.493-28.587 256-222.293-76.8-329.813 290.133 174.933 290.133-174.933-76.8 329.813zM512 264.96l-176.64-106.667 48.64 200.96-157.44 135.253 205.653 17.92 79.787 189.013 80.213-189.44 205.653-17.92-155.733-135.253 46.933-200.96z" />
<glyph unicode="&#xe931;" glyph-name="facebook_like" d="M896 486.4c-14.676 35.985-46.275 62.358-84.635 69.44l-0.698 0.107-201.387 13.653c-24.747 0-37.973 16.213-23.893 42.667 16.293 35.404 31.729 77.957 43.799 121.903l1.428 6.097c19.627 67.413-7.253 177.067-75.947 177.067s-102.4-72.96-147.627-155.733c-73.813-136.96-80.213-142.933-217.6-228.267-7.478-3.793-12.515-11.425-12.515-20.233 0-11.486 8.563-20.972 19.654-22.421l0.114-0.012c20.907-4.267 136.107 85.333 151.040 98.56 58.453 56.32 100.693 162.133 156.16 248.32 48.64 75.093 113.067 15.36 73.387-112.213-34.133-110.933-60.587-125.867-36.267-167.68 48.64-82.773 272.213 6.827 315.307-90.453 25.6-57.6-28.16-55.893-14.080-114.773 0.312-3.219 0.491-6.958 0.491-10.739 0-26.127-8.508-50.266-22.905-69.799l0.228 0.324c-12.549-7.581-20.81-21.147-20.81-36.643 0-6.688 1.539-13.016 4.281-18.65l-0.111 0.253c1.313-6.072 2.065-13.048 2.065-20.2 0-28.471-11.918-54.159-31.036-72.347l-0.042-0.039c-16.524-6.134-28.086-21.766-28.086-40.098 0-2.871 0.284-5.676 0.824-8.387l-0.045 0.272c2.56-18.773 3.413-24.747-74.667-42.667-164.693-42.24-376.747 69.547-459.093 78.080-30.87 3.549-54.619 29.531-54.619 61.060 0 0.284 0.002 0.567 0.006 0.849v-0.043 192.427c0 12.489-10.124 22.613-22.613 22.613s-22.613-10.124-22.613-22.613v0-192.427c-0.001-0.185-0.002-0.404-0.002-0.624 0-54.853 41.404-100.035 94.665-105.999l0.484-0.044c75.52-8.533 298.667-122.453 473.173-78.080 94.293 23.467 115.2 42.667 108.8 94.72 34.56 11.947 75.52 99.84 52.907 151.893 27.207 27.757 43.999 65.811 43.999 107.787 0 7.127-0.484 14.141-1.421 21.011l0.089-0.799c-5.973 26.453 43.947 49.92 9.813 122.88z" />
<glyph unicode="&#xe932;" glyph-name="filter_list" d="M844.373 917.333h-664.747c-0.057 0-0.123 0-0.19 0-37.703 0-68.267-30.564-68.267-68.267 0-13.443 3.886-25.979 10.595-36.545l-0.165 0.278 329.813-526.933v-287.147c-0.001-0.070-0.001-0.153-0.001-0.236 0-11.075 8.978-20.053 20.053-20.053 5.703 0 10.849 2.38 14.501 6.202l0.007 0.008 47.36 47.36c24.255 24.311 39.254 57.866 39.254 94.924 0 0.078 0 0.157 0 0.235v-0.012 158.72l329.813 526.933c6.545 10.288 10.43 22.824 10.43 36.267 0 37.703-30.564 68.267-68.267 68.267-0.067 0-0.134 0-0.201 0h0.010z" />
<glyph unicode="&#xe933;" glyph-name="trashcan" d="M840.533 797.867h-166.4c-34.133 162.133-285.867 162.133-320 0-64-12.8-247.467 34.133-243.2-72.533-8.533-59.733 17.067-115.2 85.333-110.933-8.533-17.067 42.667-537.6 38.4-554.667 4.267-46.933 42.667-81.067 89.6-81.067h371.2c46.933 0 85.333 34.133 89.6 81.067l42.667 541.867c0 4.267 0 8.533 0 12.8 106.667-17.067 119.467 179.2 12.8 183.467zM512 874.667c51.2 0 98.133-34.133 115.2-81.067h-230.4c17.067 46.933 64 81.067 115.2 81.067zM742.4 64c0-21.333-21.333-42.667-46.933-42.667h-366.933c-25.6 0-42.667 17.067-46.933 42.667 0 8.533-46.933 541.867-38.4 550.4 4.267 8.533 524.8 0 529.067 4.267 4.267 0 4.267 0 8.533-4.267 8.533-8.533-42.667-541.867-38.4-550.4zM866.133 686.933c0-12.8-12.8-25.6-25.6-25.6h-657.067c-34.133 0-25.6 42.667-25.6 64 0 12.8 12.8 25.6 25.6 25.6h657.067c34.133 0 25.6-42.667 25.6-64zM418.133 115.2c-12.8 0-21.333 8.533-21.333 21.333l-21.333 375.467c0 12.8 8.533 21.333 21.333 25.6 12.8 0 21.333-8.533 25.6-21.333l21.333-375.467c-4.267-12.8-12.8-25.6-25.6-25.6 0 0 0 0 0 0zM597.333 115.2c0 0 0 0 0 0-12.8 0-21.333 12.8-21.333 25.6l21.333 375.467c0 12.8 8.533 21.333 25.6 21.333 12.8 0 21.333-12.8 21.333-25.6l-21.333-375.467c-4.267-12.8-12.8-21.333-25.6-21.333z" />
<glyph unicode="&#xe934;" glyph-name="favorite" d="M42.667 643.413c0 194.56 215.467 321.707 461.653 103.253 14.933-13.227 130.56 156.587 328.107 103.253 321.707-87.467 78.507-594.347-313.6-815.787-27.733-12.8-476.16 297.813-476.16 609.28z" />
<glyph unicode="&#xe935;" glyph-name="read_more" d="M422.4 618.667c23.74-15.779 52.905-25.177 84.265-25.177 0.376 0 0.751 0.001 1.126 0.004h-0.058c28.019 0.047 54.445 6.823 77.762 18.796l-0.962-0.449c48.875 24.2 83.052 71.579 88.272 127.371l0.048 0.629v14.507c-2.085 89.016-73.583 160.662-162.342 162.982l-0.218 0.005c-0.296 0.002-0.645 0.003-0.995 0.003-73.249 0-134.909-49.619-153.201-117.078l-0.257-1.112c-4.547-14.081-7.168-30.282-7.168-47.095 0-56.056 29.138-105.306 73.094-133.432l0.634-0.38zM396.8 789.333c14.407 49.653 59.479 85.333 112.885 85.333 0.064 0 0.127 0 0.191 0h-0.010c65.475-2.311 117.873-55.156 119.464-120.596l0.003-0.151c0.101-1.467 0.159-3.18 0.159-4.907s-0.058-3.439-0.171-5.137l0.012 0.23c-3.303-41.937-28.779-77.232-64.593-94.423l-0.687-0.297c-16.404-9.12-35.979-14.488-56.807-14.488-23.211 0-44.864 6.667-63.15 18.19l0.491-0.289c-32.404 21.141-53.522 57.22-53.522 98.232 0 12.929 2.099 25.367 5.974 36.993l-0.238-0.825zM940.8 465.92c-13.722 19.398-34.143 33.272-57.834 38.29l-0.619 0.11v2.56c1.017 8.197 1.597 17.684 1.597 27.307s-0.58 19.11-1.708 28.429l0.111-1.122v4.693c-4.267 25.6-11.52 31.147-40.107 39.253-17.453 4.703-37.492 7.405-58.162 7.405-2.953 0-5.894-0.055-8.82-0.165l0.422 0.013c-105.979-0.511-200.883-47.495-265.451-121.602l-0.362-0.425c-48.647 55.365-112.973 95.878-186.022 114.641l-2.565 0.559c-99.413 22.613-160 12.373-180.053-25.6-4.662-13.398-7.355-28.84-7.355-44.912 0-10.388 1.125-20.513 3.26-30.26l-0.171 0.932v-7.253c-9.922-3.138-18.542-7.193-26.487-12.219l0.461 0.272c-26.46-17.288-43.701-46.766-43.701-80.271 0-4.948 0.376-9.808 1.101-14.553l-0.067 0.531c5.412-38.252 32.127-69.105 67.569-80.447l0.698-0.193v-198.4c-1.265-5.129-1.99-11.017-1.99-17.075 0-9.186 1.668-17.983 4.719-26.103l-0.169 0.512c12.8-26.453 42.667-24.32 64.853-22.613h16.64c65.719-0.928 128.729-10.997 188.301-28.988l-4.835 1.255c12.8-4.267 25.6-7.68 38.827-12.373s25.6-9.813 38.4-15.36c3.26-1.243 6.078-2.825 8.618-4.755l-0.084 0.061 6.827-6.827c2.203-1.353 4.872-2.155 7.728-2.155 0.283 0 0.565 0.008 0.844 0.023l-0.039-0.002c1.346-0.186 2.9-0.292 4.48-0.292s3.134 0.106 4.658 0.311l-0.178-0.020c3.085 0.869 5.777 2.034 8.268 3.501l-0.162-0.088 8.533 4.267 17.92 8.533 36.693 14.507 37.547 12.8s25.6 6.827 38.4 9.813c12.8 4.267 25.6 5.547 38.827 8.107s26.027 3.84 39.253 5.12l39.68 2.987 39.68 0.853 20.48-0.853c0.214-0.005 0.466-0.008 0.719-0.008 9.013 0 17.189 3.583 23.182 9.402l-0.008-0.008c16.64 17.067 17.92 52.48 14.080 116.907v19.2c0 11.782-9.551 21.333-21.333 21.333s-21.333-9.551-21.333-21.333v0-21.333c1.336-12.158 2.098-26.256 2.098-40.533s-0.762-28.376-2.248-42.258l0.15 1.725c-7.842 0.322-17.046 0.506-26.292 0.506-101.621 0-198.059-22.19-284.733-61.99l4.252 1.75v418.987c57.432 71.672 144.34 117.671 242.050 119.462l0.296 0.004c1.389 0.034 3.024 0.053 4.664 0.053 19.292 0 37.961-2.667 55.658-7.654l-1.442 0.347h5.12v-8.107c0.712-6.717 1.119-14.511 1.119-22.4s-0.406-15.683-1.199-23.362l0.080 0.962c0.102-1.087 0.161-2.35 0.161-3.627s-0.058-2.54-0.173-3.787l0.012 0.16c-37.692-13.592-65.731-45.449-73.689-84.601l-0.124-0.732c-0.912-4.777-1.434-10.272-1.434-15.888 0-32.565 17.54-61.033 43.687-76.473l0.413-0.226c14.418-9.661 32.099-15.517 51.131-15.786l0.069-0.001c0.445-0.008 0.97-0.012 1.496-0.012 15.499 0 30.113 3.791 42.965 10.496l-0.514-0.244c32.267 16.406 54.804 47.877 58.419 84.895l0.035 0.438c0.278 2.655 0.436 5.736 0.436 8.854 0 19.56-6.238 37.664-16.834 52.429l0.184-0.27zM112.64 398.933c-0.514 2.734-0.807 5.88-0.807 9.094 0 17.841 9.050 33.569 22.81 42.842l0.184 0.117c9.269 6.115 20.63 9.771 32.842 9.813h0.011c0.204 0.003 0.446 0.004 0.687 0.004 6.803 0 13.313-1.254 19.311-3.542l-0.372 0.125c21.068-7.598 35.857-27.418 35.857-50.692 0-0.479-0.006-0.956-0.019-1.432l0.001 0.070c-1.013-17.603-9.965-32.925-23.301-42.553l-0.166-0.114c-8.774-6.374-19.761-10.197-31.64-10.197-27.353 0-49.973 20.268-53.66 46.605l-0.033 0.286zM224.853 93.44h-21.333c-8.241-0.391-15.996-1.46-23.512-3.157l0.899 0.171c-0.284 2.941-0.445 6.358-0.445 9.813s0.162 6.872 0.478 10.245l-0.033-0.431c0.143 2.042 0.224 4.425 0.224 6.827s-0.081 4.785-0.241 7.146l0.017-0.32v186.453c16.26 3.044 30.642 9.473 42.953 18.548l-0.286-0.201c24.392 17.349 40.643 44.775 42.651 76.077l0.015 0.296c0.004 0.33 0.006 0.719 0.006 1.109 0 41.711-26.84 77.153-64.191 89.998l-0.669 0.2c-5.96 2.006-13.025 3.649-20.302 4.627l-0.605 0.067v7.68c-1.241 7.694-1.951 16.564-1.951 25.6s0.709 17.906 2.075 26.557l-0.125-0.957c5.547 15.787 44.8 24.32 131.413 4.267 71.421-18.902 131.746-58.743 175.741-112.472l0.472-0.595v-413.867c-17.067 6.4-42.667 14.507-75.947 24.747-55.571 17.938-119.697 29.319-186.143 31.542l-1.163 0.031zM879.787 356.693c-6.556-3.556-14.354-5.646-22.64-5.646-10.562 0-20.33 3.396-28.273 9.156l0.14-0.097c-14.549 7.94-24.254 23.128-24.254 40.583 0 3 0.287 5.933 0.834 8.773l-0.046-0.289c5.577 25.688 24.504 45.892 48.992 53.205l0.501 0.129h10.24c16.746-0.934 31.192-9.989 39.559-23.26l0.121-0.206c6.689-7.945 10.754-18.292 10.754-29.588 0-0.999-0.032-1.99-0.094-2.973l0.007 0.134c-2.784-22.106-16.491-40.483-35.462-49.753l-0.378-0.167z" />
<glyph unicode="&#xe936;" glyph-name="visibility" d="M512 682.667c0.412 0.001 0.899 0.002 1.386 0.002 163.929 0 305.757-94.625 373.844-232.234l1.090-2.435c-69.737-140.161-211.979-234.777-376.32-234.777s-306.582 94.616-375.223 232.346l-1.097 2.431c69.177 140.044 211.005 234.669 374.934 234.669 0.487 0 0.974-0.001 1.461-0.003h-0.075zM512 768c-212.108-0.168-393.583-131.142-468.128-316.605l-1.205-3.395c75.728-188.83 257.242-319.753 469.333-319.753s393.605 130.923 468.129 316.361l1.204 3.393c-75.751 188.858-257.226 319.832-469.312 320h-0.021zM512 554.667c58.91 0 106.667-47.756 106.667-106.667s-47.756-106.667-106.667-106.667c-58.91 0-106.667 47.756-106.667 106.667v0c0 58.91 47.756 106.667 106.667 106.667v0zM512 640c-106.039 0-192-85.961-192-192s85.961-192 192-192c106.039 0 192 85.961 192 192v0c-0.242 105.941-86.059 191.758-191.977 192h-0.023z" />
<glyph unicode="&#xe937;" glyph-name="banktransfer" d="M981.333 74.667v11.947c0.012 0.451 0.020 0.982 0.020 1.514 0 17.362-7.569 32.956-19.588 43.662l-0.058 0.051c-17.713 12.608-39.79 20.158-63.63 20.158-6.156 0-12.195-0.503-18.077-1.471l0.641 0.087v408.32h49.067c0.517-0.019 1.125-0.030 1.735-0.030 26.98 0 48.962 21.404 49.89 48.159l0.002 0.085v61.867c0.005 0.254 0.007 0.554 0.007 0.855 0 27.423-22.112 49.681-49.478 49.918h-78.53c-94.909 52.628-168.215 97.142-239.939 143.88l15.512-9.48-15.787 10.24c-28.406 23.703-63.756 40.013-102.582 45.525l-1.098 0.128c-54.613 7.253-112.64-35.413-162.987-69.12-14.507-10.24-28.16-19.627-40.533-26.88-5.916-3.857-9.772-10.443-9.772-17.929 0-4.275 1.257-8.256 3.423-11.594l-0.050 0.083c3.678-6.312 10.414-10.486 18.125-10.486 3.852 0 7.461 1.042 10.561 2.859l-0.098-0.053 0.853 0.427c13.227 7.68 27.733 17.92 42.667 28.587 42.667 29.867 96 66.133 135.68 64 32.878-5.186 61.899-18.834 85.613-38.627l-0.28 0.227 16.213-11.093c49.92-32.427 101.12-63.147 151.467-92.587l13.653-8.533h-669.44c-0.758 0.028-1.649 0.045-2.544 0.045-12.843 0-24.906-3.338-35.369-9.193l0.367 0.188c-12.986-8.491-21.446-22.962-21.446-39.41 0-1.146 0.041-2.282 0.122-3.408l-0.009 0.151v-58.453c-0.005-0.246-0.007-0.535-0.007-0.825 0-13.571 5.921-25.759 15.321-34.121l0.046-0.040c20.127-13.806 45.011-22.049 71.821-22.049 4.76 0 9.459 0.26 14.084 0.766l-0.572-0.051v-406.613h-50.347c-0.517 0.019-1.125 0.030-1.735 0.030-27.216 0-49.388-21.595-50.316-48.585l-0.002-0.085v-20.907c-0.918-7.046-1.443-15.195-1.443-23.467s0.524-16.421 1.541-24.416l-0.099 0.949c2.294-17.567 13.205-32.155 28.285-39.546l0.302-0.134c7.544-3.326 16.34-5.261 25.588-5.261 1.505 0 2.999 0.051 4.479 0.152l-0.2-0.011h829.44c53.333 6.4 49.493 62.72 49.493 89.6zM86.613 609.28v64.853c3.524 1.946 7.726 3.091 12.195 3.091 0.814 0 1.619-0.038 2.413-0.112l-0.102 0.008h829.013c4.054-0.232 7.253-3.577 7.253-7.668 0-0.004 0-0.008 0-0.013v0.001-59.733c0.008-0.131 0.012-0.284 0.012-0.438 0-4.096-3.206-7.443-7.246-7.668l-0.020-0.001h-695.467l-19.627-2.987c-26.88-2.133-106.667-9.387-128 10.667zM836.267 558.933v-408.32l-76.8-3.413v411.733zM716.8 558.933v-413.013h-123.307v413.013zM549.12 558.933v-413.013h-74.667v413.013zM306.347 146.347v412.587h125.44v-413.013zM263.68 557.653v-411.307h-76.8v407.040zM927.147 27.733h-823.040c-1.73-0.246-3.729-0.387-5.76-0.387s-4.030 0.141-5.986 0.412l0.226-0.026c-3.348 2.117-5.625 5.667-5.97 9.766l-0.003 0.047c-0.717 5.572-1.125 12.018-1.125 18.56s0.409 12.988 1.203 19.314l-0.077-0.754v21.333c0 4.242 3.438 7.68 7.68 7.68v0h724.053c11.321 0.168 22.266 0.939 33.034 2.282l-1.46-0.149c26.027 2.133 65.707 5.973 78.933-5.973 3.244-3.112 5.26-7.482 5.26-12.324 0-0.77-0.051-1.527-0.15-2.27l0.009 0.087v-31.147c4.693-21.333 0.853-25.6-6.827-26.453z" />
<glyph unicode="&#xe938;" glyph-name="auctions" d="M242.347 852.053c-2.219 1.171-4.851 1.859-7.642 1.859-5.927 0-11.129-3.098-14.077-7.764l-0.040-0.068c-39.253-65.28-145.067-251.733-160.853-278.613s-17.067-62.72 7.68-75.947c319.147-189.867 264.533-192.853 363.947-4.267 20.48-11.52 418.133-230.4 440.32-237.227 115.627-35.84 130.133 67.413 63.147 113.067 0 4.267-426.667 245.76-432.213 247.893s-14.507-17.067 67.413 137.387c3.565 6.1 5.67 13.431 5.67 21.253 0 15.586-8.357 29.22-20.835 36.666l-0.195 0.108-6.827 2.987c-180.053 96.427-197.12 124.16-211.2 98.987-1.787-2.569-2.855-5.754-2.855-9.189 0-5.561 2.8-10.468 7.066-13.389l0.056-0.036 0.853-0.427c197.547-115.2 202.667-109.227 197.547-123.733-209.067-399.36-197.547-378.88-200.96-381.013-27.307-12.8-235.947 134.827-250.88 134.827-6.4 7.253-6.4 18.347 2.56 34.133 153.6 278.187 175.787 288.853 152.32 302.933zM482.987 581.547c5.12-2.987 414.293-235.947 433.067-248.747s42.667-58.88 0-58.88c-30.293 0-21.333-5.547-465.067 238.933-4.693 2.987-8.533-7.68 32 68.693zM391.253 106.667c-77.227 0-209.067 6.827-250.88-39.68s-29.867-88.32 35.413-88.32h428.8c64 0 75.093 37.12 49.067 72.107-38.4 51.2-128 52.907-264.96 56.32zM634.027 17.493c-7.853-3.288-16.978-5.198-26.55-5.198-1.167 0-2.327 0.028-3.479 0.084l0.162-0.006c-486.4 0-462.507-2.987-457.387 8.533 27.307 62.72 159.147 54.187 244.48 52.053 93.013-2.133 215.467 1.707 244.48-55.467zM391.253 294.4c-23.040 0-17.067-17.92-17.067-128 0-9.426 7.641-17.067 17.067-17.067s17.067 7.641 17.067 17.067v0c-0.427 116.053 4.267 128-17.067 128zM301.653 163.413c0 9.813 0 5.12-81.493 95.573-3.097 3.144-7.401 5.091-12.16 5.091s-9.063-1.948-12.158-5.089l-0.002-0.002c-3.010-2.946-4.934-6.992-5.119-11.486l-0.001-0.034c0-9.387-3.413-3.84 81.067-95.573 3.173-3.213 7.579-5.203 12.449-5.203 9.090 0 16.56 6.933 17.412 15.799l0.006 0.071zM587.52 248.32c-0.896 9.138-8.541 16.221-17.839 16.221-0.178 0-0.356-0.003-0.533-0.008l0.026 0.001c-4.445-0.326-8.351-2.399-11.077-5.527l-0.017-0.019c-85.333-91.307-81.92-85.333-81.92-95.573 0.463-8.818 7.726-15.793 16.618-15.793 0.158 0 0.315 0.002 0.471 0.007l-0.023-0.001h0.853c4.528 0.186 8.574 2.11 11.517 5.117l0.003 0.003c85.333 91.733 82.347 86.187 81.92 95.573z" />
<glyph unicode="&#xe939;" glyph-name="visibility_off" d="M512 704c0.412 0.001 0.899 0.002 1.386 0.002 163.929 0 305.757-94.625 373.844-232.234l1.090-2.435c-25.558-52.533-60.179-96.841-102.257-132.647l-0.57-0.473 60.16-58.88c58.809 51.884 105.043 116.616 134.482 189.904l1.198 3.376c-75.789 188.997-257.459 320.037-469.736 320.037-55.357 0-108.632-8.911-158.47-25.378l3.566 1.021 69.973-70.827c24.766 5.432 53.214 8.544 82.388 8.544 1.036 0 2.070-0.004 3.104-0.012l-0.159 0.001zM466.347 656.64l88.32-88.32c24.477-10.967 43.646-30.137 54.342-53.939l0.271-0.674 88.32-88.32c3.565 13.632 5.729 29.333 5.972 45.499l0.002 0.154c-0.726 105.251-86.216 190.293-191.569 190.293-0.002 0-0.003 0-0.005 0v0c-1.333 0.035-2.902 0.055-4.476 0.055-14.606 0-28.807-1.731-42.411-4.999l1.233 0.25zM85.333 796.16l114.773-114.347c-69.634-55.188-123.647-127.175-156.26-209.936l-1.18-3.397c75.749-188.491 257.018-319.147 468.804-319.147 0.186 0 0.372 0 0.558 0h-0.029c66.315 0.005 129.666 12.691 187.761 35.765l-3.441-1.205 145.92-145.92 60.16 60.16-756.48 758.613zM405.333 476.16l111.787-113.493h-5.12c-58.91 0-106.667 47.756-106.667 106.667v0c0 3.413 0.427 4.693 0.427 6.827zM260.267 621.227l75.093-74.667c-9.69-22.418-15.336-48.52-15.36-75.937v-0.009c0.301-106.047 86.338-191.898 192.426-191.898 27.124 0 52.936 5.612 76.341 15.738l-1.247-0.48 42.667-42.667c-35.366-10.345-76.021-16.406-118.057-16.639l-0.13-0.001c-0.412-0.001-0.899-0.002-1.386-0.002-163.929 0-305.757 94.625-373.844 232.234l-1.090 2.435c30.172 61.017 72.424 111.871 123.98 151.138l1.034 0.755z" />
<glyph unicode="&#xe93a;" glyph-name="leaf" d="M789.76 298.24c66.56 70.827 146.773 179.2 111.36 270.080-4.267 11.947-11.093 11.947-106.24 27.733-13.84 2.555-29.765 4.016-46.031 4.016-9.786 0-19.449-0.529-28.961-1.559l1.178 0.104c-33.707 130.56-102.4 197.12-203.947 313.6-36.693 42.667-213.333-175.787-240.213-320.853-70.4 11.947-162.56-6.4-162.56-37.973-0.768-6.082-1.207-13.12-1.207-20.26 0-29.959 7.72-58.116 21.278-82.589l-0.445 0.875c19.981-60.426 49.035-112.754 86.054-158.356l-0.72 0.916c-25.91-28.455-50.702-59.342-73.517-91.723l-2.003-2.997c-25.173-34.133 116.907-92.587 122.88-49.92 4.267 29.867-40.107 14.080-85.333 42.667 78.507 108.373 75.093 76.8 78.080 95.573s-67.413 95.573-77.227 134.827c-13.653 55.467-33.28 48.213-33.28 121.6 78.933 45.227 163.413-17.493 160.853 27.733s69.547 217.6 191.147 305.92c79.36-90.453 170.667-183.040 189.44-301.653 1.452-8.32 8.62-14.564 17.246-14.564 1.45 0 2.86 0.177 4.207 0.509l-0.12-0.025c-4.267 0 11.947 13.653 159.573-14.933 16.64-85.333-56.747-173.653-116.907-235.093-22.187-22.187 35.84-56.32 66.56-117.333-26.16-19.072-58.944-30.514-94.4-30.514-2.964 0-5.909 0.080-8.834 0.238l0.408-0.018c-76.899 6.708-146.006 35.519-202.176 79.963l0.79-0.603c-2.462 2.458-5.69 4.148-9.296 4.682l-0.091 0.011c-1.349 0.528-2.911 0.834-4.545 0.834-3.355 0-6.408-1.29-8.69-3.402l0.008 0.008-2.987-2.133c-39.68-48.213-98.987-49.067-85.333-78.080s55.040 6.4 81.067 27.307c-3.75-69.749-19.079-134.917-44.102-195.037l1.435 3.89c-0.205-1.005-0.322-2.16-0.322-3.342 0-9.661 7.832-17.493 17.493-17.493 6.838 0 12.759 3.923 15.636 9.641l0.046 0.101c25.316 60.968 40.819 131.675 42.652 205.775l0.014 0.732c59.639-38.010 131.186-62.69 208.041-68.183l1.452-0.083c38.4 0 143.36 35.413 128 68.267-19.108 38.578-41.576 71.817-67.848 101.623l0.435-0.503z" />
</font>
</defs>
</svg>
